<?xml version="1.0" standalone="no"?>
<!DOCTYPE svg PUBLIC "-//W3C//DTD SVG 1.1//EN" "http://www.w3.org/Graphics/SVG/1.1/DTD/svg11.dtd" >
<svg xmlns="http://www.w3.org/2000/svg">
<metadata>Generated by IcoMoon</metadata>
<defs>
<font id="Captain" horiz-adv-x="1024">
<font-face units-per-em="1024" ascent="960" descent="-64" />
<missing-glyph horiz-adv-x="1024" />
<glyph unicode="&#x20;" horiz-adv-x="512" d="" />
<glyph unicode="&#xe900;" glyph-name="001" horiz-adv-x="838" d="M837.696 341.76c11.2 17.408-366.336 621.952-387.84 618.208-9.376-1.632-97.568-130.976-193.408-278.144 0 0-14.752 100-27.488 108.128-12.768 8.064-120.16-25.728-130.336-39.776s54.688-229.024 54.688-229.024c-85.728-135.616-155.872-252.448-153.28-262.048 1.696-6.208 59.168-4.672 143.008 1.248 0 0 36.736-316.128 42.976-322.368s152.544 4.256 152.544 4.256c-6.688 54.176-26.112 271.52 90.656 288.256 0 0 133.568 36.768 83.776-283.36 0 0 120.448-4.384 132.416 3.616s107.136 374.304 107.136 374.304c50.592 7.296 82.976 13.312 85.152 16.704z" />
<glyph unicode="&#xe901;" glyph-name="002" horiz-adv-x="700" d="M355.872 960c-214.528 0-388.512-246.176-350.688-490.112 36.384-234.528 259.616-533.888 306.24-533.888 30.688 0 353.504 348.64 382.016 565.44 44.096 335.136-138.016 458.56-337.568 458.56zM473.728 637.056c-28.672-88.192-105.952-142.048-172.416-120.448-66.496 21.696-97.12 110.688-68.416 198.88 28.736 88.192 105.92 142.048 172.48 120.384 66.432-21.632 97.056-110.688 68.352-198.816z" />
<glyph unicode="&#xe902;" glyph-name="003" d="M831.264 857.568c-70.112 31.424-385.696 158.368-694.944-133.952 0 0-324.672-325.12 28.064-535.328 42.304-25.152 110.784-41.888 130.688-54.528 15.904-10.176 4.096-154.752 22.304-161.248 37.472-13.248 191.648 141.888 208.992 152.192 25.76 15.328 423.232 89.056 488.448 363.264 49.376 207.456-113.536 338.208-183.552 369.6z" />
<glyph unicode="&#xe903;" glyph-name="004" d="M831.2 857.568c-70.080 31.424-385.664 158.368-694.88-134.016 0 0-324.672-325.056 28.064-535.296 42.336-25.152 110.784-41.888 130.72-54.528 15.904-10.176 4.064-154.848 22.304-161.248 37.44-13.248 191.616 141.888 208.992 152.192 25.76 15.328 423.2 89.056 488.448 363.264 49.344 207.488-113.568 338.24-183.648 369.632zM369.536 489.44c-20.224-42.016-61.92-64-93.088-48.96-31.168 15.008-40 61.248-19.776 103.328 20.256 42.048 61.92 64 93.088 48.992 31.168-15.040 40.032-61.312 19.776-103.36zM597.568 479.872c-27.36-56.832-83.712-86.56-125.888-66.208-42.112 20.256-54.112 82.816-26.752 139.648 27.36 56.864 83.776 86.56 125.856 66.24 42.208-20.224 54.144-82.816 26.784-139.68zM784.928 489.44c-20.256-42.016-61.952-64-93.12-48.96-31.2 15.008-40.032 61.248-19.776 103.328 20.224 42.048 61.92 64 93.056 48.992 31.232-15.040 40.064-61.312 19.84-103.36z" />
<glyph unicode="&#xe904;" glyph-name="005" d="M182.752 408.448c0 0-182.752 24.736-182.752-148.672 0-173.504 312.832-235.392 814.624-117.696 0 0 218.368 40.192 209.088 185.824-9.28 145.568-147.168 136.32-178.080 105.344 0 0 77.44 108.448-12.384 185.888-89.888 77.344-176.576 6.144-204.448-52.704 0 0 69.696 254.016-182.752 232.32-238.048-20.512-325.248-204.512-263.296-390.304z" />
<glyph unicode="&#xe905;" glyph-name="006" horiz-adv-x="940" d="M831.328 542.016v-0.128c-7.008 37.888-19.616 74.176-37.504 107.552l0.032-0.064 67.84 105.376-119.328 107.36-97.888-67.552c-32.416 16.064-66.24 26.304-100.448 31.328l0.192 0.064-35.808 134.048-138.432-26.24-29.248-139.264 0.128 0.064c-28.8-13.504-56.192-30.688-81.408-51.424v0l-111.040 51.36-62.496-89.856 62.496-107.424 0.064 0.064c-15.168-33.504-25.376-67.936-30.944-102.496v0.064l-117.536-17.024v-124.064l131.488-41.312c8.864-26.88 20.672-52.448 35.36-76.384l-0.032 0.064-80.928-99.616 98.72-90.688 98.752 75.328c7.296-4.352 14.72-8.512 22.464-12.352 11.456-5.696 23.136-10.56 34.912-14.816l55.488-157.984h124.128l23.872 149.376h-0.032c30.112 7.744 59.424 19.36 87.2 34.624v0l101.408-62.24 81.696 85.984-53.088 92.448c12.736 17.856 24.352 36.832 34.432 57.248 7.232 14.56 13.344 29.44 18.656 44.352v-0.064l125.984 51.904v112.128l-109.152 40.256zM390.176 273.952c-89.44 34.688-127.328 151.872-84.672 261.568 42.656 109.76 149.696 170.56 239.104 135.808s127.328-151.872 84.672-261.632c-42.688-109.76-149.696-170.56-239.104-135.744z" />
<glyph unicode="&#xe906;" glyph-name="007" horiz-adv-x="917" d="M546.87 685.020v-0.064c-4.652 24.946-12.935 48.777-24.691 70.76h0.032l44.635 69.295-78.534 70.633-64.388-44.476c-21.314 10.514-43.584 17.236-66.077 20.581h0.127l-23.544 88.251-91.055-17.236-19.243-91.596h0.096c-18.956-8.857-36.957-20.167-53.556-33.835v0l-73.054 33.835-41.099-59.131 41.099-70.633 0.064 0.064c-9.972-22.079-16.694-44.795-20.358-67.479v0.032l-77.323-11.183v-81.624l86.499-27.144c5.83-17.682 13.604-34.536 23.258-50.243l-0.032 0.064-53.206-65.567 64.962-59.673 64.93 49.637c4.811-2.899 9.685-5.639 14.751-8.092 7.551-3.728 15.229-7.009 22.971-9.813l36.511-103.926h81.624l15.707 98.191c19.817 5.161 39.124 12.712 57.347 22.843v0l66.682-40.94 53.779 56.487-34.918 60.788c8.379 11.661 15.994 24.277 22.62 37.658 4.683 9.653 8.73 19.339 12.266 29.183v0l82.867 34.090v73.755l-71.748 26.507zM256.661 508.74c-58.813 22.875-83.759 99.912-55.722 172.042 28.036 72.162 98.478 112.178 157.291 89.303 58.845-22.843 83.759-99.88 55.722-172.010-28.068-72.226-98.478-112.241-157.291-89.334zM845.491 290.024v-0.064c-7.774 18.256-18.16 35.173-30.936 49.924h0.032l22.429 60.661-72.13 40.748-41.8-44.922c-18.064 4.428-36.32 5.862-54.098 4.556h0.127l-33.038 63.592-66.841-28.674 0.796-73.436h0.064c-12.999-9.972-24.882-21.728-35.269-35.046v0l-61.712 13.508-21.442-52.282 43.488-47.152v0.064c-3.855-18.542-5.161-37.085-4.11-55.085v0l-57.315-21.696 13.891-62.54 70.888-6.149v0.096c7.455-12.616 16.312-24.181 26.348-34.536v0l-29.661-59.227 59.864-34.663 41.322 48.968c4.174-1.37 8.347-2.612 12.68-3.664 6.372-1.561 12.808-2.74 19.243-3.6l45.623-73.436 62.54 13.891-4.652 77.96v-0.064c14.273 7.328 27.782 16.44 40.048 27.24v-0.064l58.048-20.072 31.541 52.441-37.085 40.621c4.492 10.418 8.188 21.282 10.992 32.688 2.007 8.156 3.441 16.312 4.46 24.436v0l57.698 40.207-12.553 56.455-59.482 8.315zM653.122 105.652c-48.905 7.487-81.146 62.286-71.875 122.341 9.207 60.055 56.392 102.684 105.296 95.133 48.968-7.551 81.146-62.286 71.907-122.373-9.239-60.024-56.328-102.652-105.328-95.101z" />
<glyph unicode="&#xe907;" glyph-name="008" d="M488 16.928c54.016 0 584 272.064 532.448 643.136-25.44 183.328-201.184 254.752-355.040 204.064-125.664-41.44-172-178.88-180.384-178.88-21.44 0-254.304 224.672-431.712-13.312 0 0-125.664-137.504 8.896-359.264 91.104-150.176 400.896-295.744 425.792-295.744z" />
<glyph unicode="&#xe908;" glyph-name="009" horiz-adv-x="720" d="M629.888 490.688c0.256 1.248 91.872 461.696-227.456 468.992 0 0-354.368 29.056-299.328-475.424v0c-63.104-8.128-103.104-15.52-103.104-15.52v-514.752c220.448-40.48 705.568 0 705.568 0l14.688 514.752c-27.936 9.28-58.368 16.448-90.368 21.952zM386.304 871.424c0 0 241.184 40 166.048-370.688l0.384-0.064c-120.064 11.008-251.424 4.32-356.064-5.824 0 0.224-62.048 356.832 189.632 376.576zM389.504 164.736l12.864-121.568-107.936-4.192 14.24 124.064h0.32c-56 11.328-98.624 48.448-103.68 96.576-6.752 63.424 54.048 121.92 135.872 130.496 81.696 8.672 153.376-35.744 160.128-99.232 6.016-56.896-42.56-109.664-111.808-126.144z" />
<glyph unicode="&#xe909;" glyph-name="010" horiz-adv-x="721" d="M196.864 494.88c-0.064 0.192-62.112 356.8 189.696 376.544 0 0 171.744 28.192 180.384-209.76l75.168-1.12c0 0 0.576 304.64-239.424 299.136 0 0-354.56 29.12-299.52-475.424h0.064c-63.168-8.192-103.232-15.52-103.232-15.52v-514.72c220.672-40.544 705.984 0 705.984 0l14.752 514.72c-148.928 48.96-366.688 41.28-523.872 26.144zM389.824 164.672l12.768-121.504-108-4.192 14.24 124h0.32c-56 11.328-98.688 48.448-103.744 96.64-6.752 63.424 54.112 121.888 135.936 130.496 81.856 8.672 153.504-35.744 160.256-99.136 6.080-57.024-42.528-109.856-111.776-126.304z" />
<glyph unicode="&#xe90a;" glyph-name="011" horiz-adv-x="981" d="M607.424 130.24c-169.504-82.816-364.128-32.672-434.752 111.872-65.6 134.272-1.056 302.688 144.128 392.384 47.392-83.264 89.184-150.016 98.24-150.016 23.52 0 162.4 356.576 155.84 382.816-6.528 26.24-401.376 109.376-413.376 89.696-4.576-7.488 28.608-78.432 72.544-163.040-205.536-136.064-289.056-393.44-185.728-604.896 113.184-231.552 407.36-320.384 657.248-198.304 48.352 23.616 91.296 53.376 128.608 87.744l-104.928 139.808c-31.808-34.976-71.36-65.376-117.824-88.064zM809.504 392.864c-4.192-30.496-13.44-60.736-27.2-89.696l131.808-125.44c31.136 47.872 53.696 100.192 66.56 154.24l-171.168 60.896z" />
<glyph unicode="&#xe90b;" glyph-name="012" d="M276.192 224.448c-65.056 67.136-78.56 167.424-44.576 260.192 63.552-32.64 116.448-57.44 120.32-53.568 10.176 10.176-46.304 305.12-59.008 309.824-12.672 4.736-292.928-112.32-292.928-123.968 0-4.256 44.512-30.944 101.824-62.816-48.064-141.664-21.312-298.784 83.808-407.2 113.888-117.312 287.552-144.608 439.648-83.776l-40.608 130.272c-106.496-56.896-231.68-48.096-308.48 31.040zM910.048 432.576c12.896 114.752-20.96 230.688-104.064 316.256-103.744 106.944-257.184 139.072-398.688 97.888l62.88-152.672c83.936 18.048 169.12-1.696 226.912-61.248 42.464-43.808 63.008-101.824 62.688-162.688l1.952-1.44c-67.424 15.2-122.112 25.376-124.864 20.736-7.328-12.384 121.056-283.936 134.496-285.312s255.616 181.92 252.672 193.184c-1.088 4.032-50.656 18.72-113.984 35.296z" />
<glyph unicode="&#xe90c;" glyph-name="013" horiz-adv-x="1038" d="M933.643 780.876c-172.473 214.877-497.919 239.956-726.877 56.128-228.958-183.893-274.769-507.068-102.199-721.881 172.473-214.877 497.919-239.956 726.877-56.128 229.023 183.828 274.769 507.036 102.199 721.881zM762.695 112.528c-193.594-136.103-453.276-100.544-579.873 79.585-126.694 180.162-72.383 436.535 121.276 572.703 193.594 136.135 453.276 100.512 579.938-79.65 126.597-180.065 72.318-436.47-121.341-572.638zM690.507 329.806c-4.445 0.324-34.65-19.239-55.771-40.555l-43.021 39.29c20.278 28.324 26.182 63.493 12.426 94.25-14.827 33.32-48.926 52.916-87.080 54.409l0.681 0.13v67.808c53.922 6.327 103.983 14.957 103.983 20.926 0 12.653-119.070 192.069-141.683 192.069s-104.437-206.701-93.082-218.057c4.185-4.185 37.83-3.374 78.385-0.13l10.771-68.262c-5.126-1.525-10.187-3.309-15.216-5.58-57.166-25.371-85.62-86.009-63.558-135.486 21.997-49.347 86.107-68.749 143.208-43.28 6.002 2.596 11.485 5.71 16.774 9.052l35.818-42.632c-23.944-26.442-51.262-60.833-48.666-63.882 6.099-7.105 169.585-63.753 182.498-52.722 12.913 11.096-24.495 191.777-36.467 192.653z" />
<glyph unicode="&#xe90d;" glyph-name="014" horiz-adv-x="975" d="M626.272 942.848c-258.112 72.32-529.472-90.624-606.016-363.936-76.544-273.28 70.656-553.44 328.832-625.76 258.112-72.352 529.472 90.624 606.016 363.936 76.544 273.28-70.656 553.44-328.832 625.76zM897.856 333.12c-67.168-239.84-305.248-382.88-531.776-319.36-226.56 63.424-355.68 309.312-288.576 549.12 67.2 239.84 305.28 382.848 531.808 319.36s355.712-309.312 288.544-549.12zM120.245 429.887c4.245 40.517 32.195 70.794 62.429 67.627s51.302-38.58 47.057-79.097c-4.245-40.517-32.195-70.794-62.429-67.627s-51.302 38.58-47.057 79.097zM221.068 640.396c4.869 46.563 37.001 81.363 71.77 77.727s59.007-44.33 54.138-90.893c-4.869-46.563-37.001-81.363-71.77-77.727s-59.007 44.33-54.138 90.893zM562.506 705.497c-8.483-46.039-43.228-78.226-77.605-71.892s-55.368 48.791-46.885 94.83c8.483 46.039 43.228 78.226 77.605 71.892s55.368-48.791 46.885-94.83zM708.514 673.144c33.377-10.393 49.152-55.054 35.233-99.754s-52.259-72.511-85.637-62.119c-33.377 10.393-49.152 55.054-35.233 99.754s52.259 72.511 85.637 62.119zM733.049 319.995c-33.377 10.386-49.16 55.042-35.25 99.742s52.242 72.517 85.62 62.131c33.377-10.386 49.16-55.042 35.25-99.742s-52.242-72.517-85.62-62.131zM364.8 509.088c-27.040-23.328-19.040-152.352 36.32-223.392 35.136-45.056 99.264-67.808 151.744-25.184 39.136 31.68 38.336 99.232 11.552 140.448-60.384 92.96-169.824 133.824-199.616 108.128zM548.704 310.016c-8.32-31.392-36.672-51.2-63.36-44.128-26.752 7.072-41.728 38.208-33.376 69.696 8.288 31.424 36.672 51.2 63.36 44.128s41.664-38.304 33.376-69.696z" />
<glyph unicode="&#xe90e;" glyph-name="015" horiz-adv-x="970" d="M621.12 943.648c-256.992 70.592-526.272-94.048-601.504-367.808-75.2-273.792 72.192-552.896 329.152-623.456 256.992-70.624 526.272 94.016 601.472 367.776 75.232 273.76-72.16 552.896-329.12 623.488zM562.176 35.808c-9.76 32.928-47.488 92.032-59.072 91.328-11.872-0.8-55.968-65.92-62.336-100.736-22.784 1.952-45.632 5.824-68.352 12.064-137.504 37.76-236.864 147.744-273.12 281.984 32.512 11.328 89.632 51.712 88.32 63.264-1.376 11.744-68.064 52.608-103.264 57.504 0.576 37.056 5.728 74.816 16.064 112.512 40.672 148.192 150.208 257.696 280.672 299.2 11.488-31.68 55.552-89.6 67.296-87.808 11.744 1.824 50.4 70.752 53.632 105.984 31.68-0.384 63.68-4.672 95.424-13.408 161.216-44.256 270.080-187.872 286.080-353.408-32.064-5.664-98.912-43.104-98.688-55.232 0.16-11.488 58.56-56.064 93.664-66.496-2.4-13.344-5.376-26.752-9.056-40.128-43.424-158.208-165.28-272.256-307.264-306.624zM605.312 586.528c-40.768 23.776-206.784-50.944-223.296-71.904s-39.68-232.512-20.192-247.488c19.424-14.976 160.352 28.512 212.736 85.44 25.184 27.264 55.488 219.584 30.752 233.952zM528.192 415.616c-13.504-34.080-46.624-52.96-73.952-42.112-27.328 10.88-38.496 47.264-24.96 81.376 13.536 34.080 46.656 52.992 73.984 42.144 27.264-10.816 38.464-47.232 24.928-81.408z" />
<glyph unicode="&#xe90f;" glyph-name="016" horiz-adv-x="825" d="M772.096 602.624l52.704 54.88-80.736 88.128-46.72-49.696c-14.848 13.408-30.944 25.76-48.256 36.864-56.8 36.448-120.192 55.36-184.544 58.432l7.328 65.984h87.136v102.784l-287.776-11.744v-91.040h84.64l9.824-73.6c-113.12-22.816-220.416-93.184-290.912-203.072-130.72-203.744-85.472-465.92 101.056-585.536 186.464-119.68 443.616-51.488 574.304 152.256 93.984 146.496 97.024 323.168 21.952 455.36v0zM678.272 193.344c-102.912-160.416-305.312-214.016-452.16-119.84-146.816 94.176-182.4 300.576-79.488 460.928 102.88 160.416 305.312 214.048 452.16 119.872 146.784-94.176 182.4-300.544 79.488-460.96zM481.888 431.328h0.096l-32.32 177.024h-37.216l-21.376-180.384h0.224c-7.648-4.064-15.072-8.992-22.016-15.008-43.008-37.12-52-97.056-20.192-133.888 31.744-36.8 92.416-36.608 135.328 0.512 42.944 37.12 52 97.056 20.192 133.92-6.464 7.488-14.24 13.376-22.72 17.824z" />
<glyph unicode="&#xe910;" glyph-name="017" d="M1021.888 417.76h0.064c0 0-0.128 0.416-0.256 0.608-0.736 2.72-1.664 5.056-2.848 6.72-24.128 56.384-186.272 432.672-223.328 447.488-16.448 6.592-122.144-6.432-243.2-25.984l9.792 81.408-166.304-23.36 13.44-82.976c-127.808-23.776-241.152-49.216-254.944-61.312-29.024-25.408-132.096-434.88-151.232-511.616-0.352-0.48-0.864-0.896-1.056-1.312-1.152-2.528-1.728-6.176-1.92-10.592-0.064-0.256-0.096-0.448-0.096-0.448l0.096 0.064c-2.048-57.984 72.096-258.688 98.080-273.6 28.032-16.032 801.44 8.032 829.504 40.128 26.016 29.696 110.848 352.128 94.208 414.784zM718.56 410.656c0 0-25.632-120-43.328-135.2-28.032-24.064-356.64-88.128-384.672-70.016-17.344 11.264-40.736 79.584-56.16 130.24-73.024-21.76-102.848-42.752-144.384-59.296 34.688 161.696 97.504 410.656 118.816 429.28 12.832 11.264 85.952 34.88 204.8 57.024l23.392-112.32c-63.296-11.776-115.872-26.592-119.2-34.272-7.776-18.144 146.848-254.688 176.736-252.128 29.888 2.624 181.824 276.928 163.68 291.168-18.112 14.176-70.016 14.72-128.064 8.832l18.688 122.272c113.536 18.4 180.704 30.592 196.16 24.448 25.344-10.112 187.904-366.144 187.904-366.144l-214.368-33.888z" />
<glyph unicode="&#xe911;" glyph-name="018" d="M1021.888 417.728h0.064c0 0-0.128 0.416-0.256 0.608-0.736 2.752-1.664 5.056-2.848 6.752-24.128 56.384-186.272 432.672-223.328 447.456-16.32 6.528-120.064-6.176-239.616-25.44-33.056 45.44-64.352 81.888-76.16 80.864-12.576-1.088-46.816-50.528-80.896-108.352-123.424-23.232-231.040-47.552-244.48-59.328-29.056-25.408-132.16-434.88-151.264-511.648-0.352-0.448-0.864-0.864-1.056-1.312-1.152-2.528-1.728-6.144-1.92-10.592-0.096-0.192-0.128-0.384-0.128-0.384l0.096 0.064c-2.048-57.984 72.096-258.688 98.080-273.568 28.032-16.032 801.44 8.032 829.504 40.096 26.016 29.696 110.848 352.128 94.208 414.784zM718.56 410.624c-9.472-63.328-25.632-120-43.328-135.232-28-24.064-356.672-88.16-384.672-70.016-17.344 11.232-56.16 130.208-56.16 130.208s-102.848-42.752-144.384-59.296c34.688 161.76 97.504 410.72 118.816 429.344 11.648 10.208 61.088 29.408 165.888 49.632-39.872-71.232-67.904-111.264-58.784-118.4 18.176-14.176 70.080-14.72 128.064-8.832l-31.872-264 166.304 23.328-41.184 254.208c63.328 11.776 115.872 26.592 119.2 34.272 4.192 9.728-29.92 51.008-74.688 115.584 102.944 16.128 148.992 24.928 163.328 19.264 25.344-10.144 187.872-366.176 187.872-366.176s-117.76-21.824-214.4-33.888z" />
<glyph unicode="&#xe912;" glyph-name="019" d="M0 697.408l16.416-576.16 273.184 334.336zM1003.136 784l-973.248-17.952 471.68-370.176zM498.56 280.928l-182.24 154.88-221.344-327.104 869.312-11.36-250.784 382.112zM746.304 504.832l277.696-335.84-20.864 576.192z" />
<glyph unicode="&#xe913;" glyph-name="020" horiz-adv-x="965" d="M405.28 946.752c-53.28 1.344-357.632 29.152-384.864 0s-27.232-390.688 0-415.936c27.232-25.248 507.776-590.368 528.672-594.784 20.864-4.352 414.496 452.896 415.968 474.272 1.44 21.376-482.528 534.496-559.776 536.448zM314.72 626.272c-44.576-26.016-107.104-1.856-139.744 53.984s-22.976 122.208 21.568 148.256 107.136 1.888 139.744-53.984c32.608-55.84 22.976-122.208-21.568-148.256z" />
<glyph unicode="&#xe914;" glyph-name="021" d="M572.48 863.872c-271.552 8.032-572.48-385.216-572.48-453.28 0-61.984 296.192-398.784 570.656-391.040 234.016 6.656 453.28 345.728 453.344 391.040 0 50.080-116.544 443.36-451.52 453.28zM712.16 556.448c-30.88-57.76-93.952-84.224-140.768-59.168-46.848 25.024-59.84 92.256-28.896 150.016 11.072 20.672 26.272 37.28 43.392 48.992 50.592-0.32 95.008-11.744 133.76-29.824 14.080-31.296 12.576-72.608-7.488-110.016zM572.928 135.648c-210.976-9.376-437.504 247.872-437.504 271.328 0 34.752 108.8 142.624 244.64 223.072-64.96-126.208-36.032-271.328 66.048-325.952 103.328-55.296 242.304 3.136 310.432 130.4 33.344 62.304 43.36 129.664 32.864 188.608 100.352-79.744 147.744-181.376 145.984-205.312-1.856-26.464-175.232-273.856-362.464-282.144z" />
<glyph unicode="&#xe915;" glyph-name="022" horiz-adv-x="1006" d="M1005.216 582.752c-30.528 40.512-351.488-1.248-351.488-1.248s-110.496 381.92-152.704 378.464c-42.208-3.424-167.776-415.904-167.776-415.904s-320.032-8.704-332.768-38.816c-12.704-30.144 240.672-189.632 240.672-189.632s-173.056-349.92-150.080-371.936c61.152-58.56 366.016 235.68 403.072 238.016s344.544-249.184 403.104-203.52c26.624 20.736-143.488 360.64-143.488 360.64s270.144 219.136 251.456 243.936z" />
<glyph unicode="&#xe916;" glyph-name="023" horiz-adv-x="605" d="M572.864 939.456c-40.128 59.008-504.992-23.584-533.312-66.048s-63.68-870.72-16.512-913.216c47.2-42.432 504.928-25.952 549.824 25.984s40.128 894.336 0 953.28zM198.24 859.264c10.112 11.232 186.752 41.888 194.976 33.024 8.256-8.832 8.256-37.152 0-49.568-8.224-12.384-182.976-34.208-194.976-25.952-12.032 8.256-10.144 31.264 0 42.496zM313.728 2.848c-40.928-13.984-84 3.68-96.288 39.456-12.224 35.808 11.072 76.16 51.968 90.112 40.928 14.016 84.032-3.68 96.288-39.488 12.256-35.744-11.040-76.128-51.968-90.080zM494.976 215.072c-11.776-12.608-397.184-40.864-403.456-30.688-6.336 10.208-2.4 554.528 11.744 566.304 14.112 11.808 378.304 44.064 391.68 30.688 13.408-13.376 11.84-553.76 0.032-566.304z" />
<glyph unicode="&#xe917;" glyph-name="024" d="M996.8 905.152c-52.128 72.384-894.496-46.336-949.472-92.64s-63.68-625.28-17.376-654.208c16.352-10.24 130.208-15.040 273.184-14.688-4.96-17.376-12.928-37.76-25.696-54.784-25.216-33.696-74.656-50.432-76.704-57.952-4.352-15.904 2.176-59.328 14.464-66.56 12.32-7.264 491.392 7.264 503.712 20.288 12.288 13.024 24.608 57.888 11.584 66.56-20.512 13.664-104.672 15.648-132.032 99.488 180.256 8.224 339.328 23.392 363.584 45.216 57.92 52.16 86.816 636.896 34.752 709.28zM544.64 230.304c-12.704-36.256-49.344-56.384-81.824-44.96-32.448 11.424-48.384 50.016-35.648 86.24 12.736 36.256 49.376 56.384 81.824 44.96 32.384-11.392 48.352-50.016 35.648-86.24zM901.28 418.816c-43.392-40.544-787.392-78.112-810.56-57.92-23.168 20.288-5.792 341.6 14.464 373.44 20.288 31.84 793.216 124.48 816.384 86.848 23.104-37.632 23.104-361.856-20.288-402.368z" />
<glyph unicode="&#xe918;" glyph-name="025" horiz-adv-x="600" d="M564.48 948.896c-37.248 37.216-513.28-27.744-542.176-68.864-28.864-41.088-35.552-868.704 15.552-919.84 30.304-30.304 501.344-39.264 526.56 15.552 29.312 63.744 62.24 910.976 0.064 973.152zM369.024 15.328c-103.232-37.504-215.36 10.56-250.496 107.328-35.168 96.704 20.032 205.632 123.264 243.104 103.2 37.504 215.328-10.56 250.496-107.328 35.104-96.768-20.064-205.632-123.264-243.104zM505.184 467.52c-17.792-20.736-399.936-47.392-423.616-26.688-23.68 20.768-16.288 358.496 5.92 383.68 22.208 25.152 413.248 71.104 426.624 56.288 13.28-14.816 8.864-392.544-8.928-413.28zM238.35 153.651c-13.040 31.346 6.694 69.364 44.078 84.916s78.26 2.748 91.3-28.598c13.040-31.346-6.694-69.364-44.078-84.916s-78.26-2.748-91.3 28.598z" />
<glyph unicode="&#xe919;" glyph-name="026" d="M970.88 658.912c-28.32 31.008-148.576 51.744-293.472 61.152-14.016 58.144-35.392 136.48-52.32 150.784-27.392 23.2-315.552-2.336-338.336-26.080-16.736-17.44-47.072-93.664-61.952-132.8-90.944-10.944-158.304-28.512-176-53.056-66.944-92.928-63.232-576.288 0-609.728 63.2-33.504 858.848-48.384 922.080 14.848 63.168 63.2 78.048 509.344 0 594.88zM640.352 167.424c-121.12-54.848-259.936-9.44-310.112 101.376-50.144 110.88 7.36 245.088 128.512 299.904 121.12 54.848 259.968 9.44 310.112-101.376s-7.392-245.088-128.512-299.904zM429.49 292.261c-38.321 60.645-15.645 143.766 50.647 185.655s151.099 26.685 189.419-33.959c38.321-60.645 15.645-143.766-50.647-185.655s-151.099-26.685-189.419 33.959z" />
<glyph unicode="&#xe91a;" glyph-name="027" horiz-adv-x="918" d="M682.176 176.064c17.088 12.992 26.848 205.888 0 215.616-26.88 9.792-68.352 0-87.904-19.52-19.488-19.52-7.328-179.776 0-196.096 7.36-16.288 70.848-12.992 87.904 0zM303.104 162.848c16.64 12.704 26.112 200.544 0 209.984-26.176 9.6-66.592 0.064-85.632-19.008-19.040-19.040-7.136-175.136 0-191.008 7.136-15.808 68.96-12.64 85.632 0.032zM714.624 225.248c-4.288-30.72-9.504-79.136-16.448-84.448-24.32-18.496-114.592-23.2-124.96 0-3.168 6.976-6.080 53.248-9.088 81.312l-223.872-5.696c-4.224-39.744-10.272-93.856-18.656-100.192-24.288-18.496-114.496-23.168-124.928 0-3.776 8.448-8.512 69.952-11.552 106.56l-135.552-10.496c-11.168-88.608-4.768-244.736 24.256-261.728 41.696-24.352 718.528-17.376 753.312 13.92 22.976 20.672 27.104 164.064 19.616 255.648l-132.128 5.12zM892.96 752.288c-10.336 12.448-89.728 11.904-196.64 3.52 15.808 57.184 40.96 163.808 16.704 186.112-63.744 58.592-481.28-41.632-503.392-68.992-17.44-21.568-15.68-137.152-14.112-184.896-95.392-18.912-163.552-38.208-170.368-53.76-24.32-55.552-41.632-340.192 0-374.88 3.904-3.296 14.4-6.016 30.208-8.256l127.488 2.752c-3.072 57.504-1.152 119.232 13.792 134.080 27.808 27.776 86.816 41.664 124.928 27.776 21.792-7.904 26.592-87.68 22.272-158.432l216.608 4.608c-4.32 61.632-3.584 134.176 12.736 150.56 27.744 27.744 86.752 41.664 124.96 27.744 23.36-8.544 27.2-100.672 21.024-174.912l122.912 2.656c28.384 3.808 46.624 7.904 50.848 12.16 31.296 31.296 34.752 430.496 0.032 472.16zM279.168 703.296c-0.032 31.008 1.632 80.96 12.16 96.768 15.584 23.392 309.184 76.768 328.032 59.872 16.064-14.464 10.624-57.792-2.016-111.264-108.448-10.848-231.968-27.328-338.176-45.376z" />
<glyph unicode="&#xe91b;" glyph-name="028" horiz-adv-x="760" d="M159.35 527.132c-1.31 0.447-2.333 0.831-2.684 1.31-9.746 12.11-14.507 67.804-2.492 83.429 12.046 15.625 376.471 64.513 389.156 45.949 10.545-15.401 12.366-85.73 5.368-116.277 96.658 2.492 173.825 3.93 201.017 4.441-9.778 204.787-25.019 387.687-40.293 402.96-35.404 35.372-650.469-21.76-685.873-62.596-15.082-17.414-22.239-183.762-23.39-371.199 39.398 4.537 95.284 8.531 159.19 11.982zM760.259 184.403c-0.671 98.799-4.058 217.696-9.171 332.12-135.289 2.684-611.166-30.867-751.089-40.996-0.16-94.549 1.15-192.102 3.675-276.841 37.609 1.885 89.309 2.492 148.358 2.237-6.231 20.546-7.733 60.423 2.141 73.268 12.046 15.593 376.471 64.545 389.156 45.949 12.398-17.958 12.653-111.037 1.054-127.812 94.389-3.099 174.336-6.263 215.875-7.924zM4.953 159.128c4.090-112.347 10.513-194.658 18.597-203.509 7.349-8.116 133.532-15.849 133.116-15.306-9.746 12.11-14.507 67.772-2.492 83.398 12.046 15.593 376.471 64.513 389.156 45.949 12.717-18.533 7.189-121.006-5.56-133.34-0.991-0.959 196.256-0.064 209.676 19.3 6.614 9.522 13.037 87.36 12.909 199.707-159.19 9.202-610.368 5.272-755.403 3.802z" />
<glyph unicode="&#xe91c;" glyph-name="029" horiz-adv-x="878" d="M513.728 877.344c-0.864 51.168-1.696 82.656-1.696 82.656l-54.24-6.784c0 0 2.432-22.304 3.552-79.2-242.56-43.104-461.344-456.576-461.344-456.576 259.36 193.28 274.688-94.944 274.688-94.944 49.6 117.12 119.072 163.84 178.208 167.008-1.056-22.976-2.24-46.976-3.584-72.064-22.048-412-120.416-362.848-120.416-362.848-79.648 11.872-84.736 142.432-84.736 142.432h-61.024c0 0 5.472-128.352 54.24-195.040 83.104-113.568 194.976-77.984 244.16 86.496 20.064 67.136 28.8 224.576 32.192 387.392 10.88-5.984 20.672-13.696 28.832-22.912 45.952-51.616 50.88-130.528 50.88-130.528 88.16 305.184 284.8 71.232 284.8 71.232-105.6 352.544-236.416 476.416-364.512 483.68z" />
<glyph unicode="&#xe91d;" glyph-name="030" horiz-adv-x="808" d="M792.064 861.568c-14.592 20.672-144.064 25.376-293.504 20.864 2.944 21.152 7.776 65.952-1.632 74.656-12.448 11.52-176.448-13.952-185.984-29.056-6.304-10.176-4.096-38.176-1.984-55.488-153.024-11.232-285.888-29.12-297.088-46.56-26.688-41.536 0-124.608 0-124.608s223.488 15.84 376.768 14.848c153.248-0.992 403.392-14.848 403.392-14.848s35.616 109.76 0.032 160.192zM727.808 638.080c-15.84 17.792-620.96 15.808-636.8 0-14.272-14.272-18.88-528.448 0.672-648.256 0 0 1.184-32.064 18.752-47.072 17.568-14.912 619.264-3.872 632 20 4.544 8.448 7.328 17.12 9.312 25.248 0.992 1.984 1.824 6.24 2.432 12.576 1.728 11.552 1.44 19.872 1.44 19.872 6.144 131.328-13.92 601.984-27.808 617.632zM157.44-13.6c-2.112 130.304-7.328 492.384 0.768 505.344 9.92 15.808 85.056 11.872 94.976 0 7.776-9.376 14.368-360.928 16.768-507.872-44.512 0.32-82.88 1.408-112.512 2.528zM366.528-15.872c-3.2 128.32-11.328 494.592 1.152 507.616 15.168 15.808 101.184 11.872 116.352 0 11.744-9.248 21.728-350.016 25.568-500.8-60.864-4.128-90.176-6.144-143.072-6.816zM584.672-2.912c-2.208 138.4-6.944 482.016 0.96 494.656 9.92 15.808 85.024 11.872 94.976 0 7.328-8.832 13.632-322.176 16.32-480.992-37.376-5.536-74.912-10.048-112.256-13.664z" />
<glyph unicode="&#xe91e;" glyph-name="031" horiz-adv-x="1030" d="M348.705 327.581c-68.627 356.913-148.263 469.51-148.263 469.51s-118.070-38.434-200.442-82.372c0 0 2.736-41.17 27.457-63.155 0 0 67.114 27.49 145.495 45.837 71.975-202.212 101.621-487.89 101.621-487.89 510.745 60.387 678.225 0 678.225 0l30.193 118.070c-332.224 54.915-634.286 0-634.286 0zM276.514-12.616c-24.067 48.487 2.118 110.475 58.487 138.455s121.575 11.356 145.642-37.131c24.067-48.487-2.118-110.475-58.487-138.455s-121.575-11.356-145.642 37.131zM707.708-17.825c-22.618 45.557 4.742 105.175 61.111 133.161s120.4 13.742 143.018-31.814c22.618-45.557-4.742-105.175-61.111-133.161s-120.4-13.742-143.018 31.814zM411.86 412.689c19.217-13.777 200.442 5.472 227.899 21.953 27.49 16.513 27.49 219.691 0 244.412-27.49 24.753-274.573-5.504-293.79-27.49s46.674-225.163 65.891-238.875zM970.695 679.408c-18.573 14.549-200.506 3.509-228.671-11.652s-37.307-218.178-11.041-244.122 274.541-6.921 294.756 14.099c20.215 21.148-36.438 227.094-55.043 241.676zM447.557 744.912c24.721-10.976 411.892-24.721 425.154 0 13.326 24.753 22.436 178.489 0 208.682-22.371 30.193-427.858-54.915-455.347-82.404-27.457-27.393 5.504-115.269 30.193-126.278z" />
<glyph unicode="&#xe91f;" glyph-name="032" d="M257.054 95.283c-22.378 45.083 1.957 102.714 54.353 128.723s113.014 10.545 135.392-34.538c22.378-45.083-1.957-102.714-54.353-128.723s-113.014-10.545-135.392 34.538zM658.006 90.435c-21.031 42.361 4.395 97.789 56.792 123.803s111.922 12.763 132.953-29.598c21.031-42.361-4.395-97.789-56.792-123.803s-111.922-12.763-132.953 29.598zM929.248 481.152l94.752 326.88c-369.248 67.296-799.84-36.096-799.84-36.096l0.16-0.48c-22.624 54.592-37.984 76.544-37.984 76.544s-109.76-35.744-186.336-76.608c0 0 2.56-38.272 25.504-58.72 0 0 62.4 25.6 135.264 42.624 66.912-188 94.496-453.6 94.496-453.6 474.784 56.128 630.56 0 630.56 0l28.064 109.76c-308.928 51.072-589.728 0-589.728 0-4.8 24.96-9.664 48.256-14.56 70.72l0.288-1.024c201.248 57.184 619.36 0 619.36 0z" />
<glyph unicode="&#xe920;" glyph-name="033" horiz-adv-x="928" d="M916.468 801.211c-3.97 4.001-57.545-1.842-136.749-13.402-4.954 38.776-21.722 166.633-27.979 171.524-7.4 5.78-154.057-28.804-161.108-39.507-5.939-9.019-4.129-125.348-3.366-162.568-95.401-16.101-198.741-34.648-291.474-52.496-4.922 27.439-22.802 124.872-28.995 129.794-7.177 5.812-104.801-31.694-108.326-43.222-2.699-8.892-2.191-81.522-1.747-114.582-84.476-17.975-142.974-32.869-149.548-40.301-7.781-8.733-8.638-72.122-5.335-157.138l924.217 151.453c-1.778 96.671-4.859 165.776-9.591 170.444zM926.948 563.090l-923.899-111.819c0.476-9.908 0.984-20.007 1.524-30.329l0.159-3.366c10.956-200.805 38.363-467.825 55.132-476.272 26.359-13.148 843.457 0 856.604 19.753 8.575 12.894 12.989 358.101 10.48 602.033zM861.432 13.235c-16.324-11.782-743.483-27.471-754.566-18.801-11.115 8.606-35.823 221.32-43.762 407.834l808.428 98.576c0.603-224.941 0.445-479.893-10.099-487.61zM440.418 365.144c-80.316 121.061-197.693-6.193-235.993-140.91l55.608-62.976c0 0 63.008 161.838 112.423 62.976 0 0 44.461-55.576-71.646-143.323l17.308-63.008 198.899 33.377v108.739l-108.707-39.57c-0.032-0.032 112.391 123.538 32.107 244.694zM494.787 278.604l50.59-62.849 58.117 77.68-19.785-239.708h114.963v376.839l-60.626 18.515z" />
<glyph unicode="&#xe921;" glyph-name="034" horiz-adv-x="702" d="M688.192 362.976c1.12 147.776 17.216 290.656 13.152 299.2-7.52 15.904-40.224 22.624-40.224 22.624 50.24 60.32 15.104 120.672 15.104 120.672-57.856 82.976-110.624-2.496-110.624-2.496 27.648 148.32-93.024 155.872-93.024 155.872-113.728 16.224-120.32-136.704-120.64-160.288-0.256 16.8-6.816 96.192-108.096 71.424-113.184-27.68-72.384-170.144-72.384-170.144s-38.208-41.92-30.72-60.32c7.52-18.432 25.152-17.6 25.152-17.6 2.72-18.048 3.232-53.408 2.496-98.016-0.096-0.032-135.744-23.488-152.544-48.64-16.736-25.152-25.12-306.688 0-328.512 25.152-21.824 142.848-38.464 142.848-38.464v0c0.896-28.416 3.136-48.128 7.2-54.528 12.224-19.488 175.616-130.848 315.904-116.512 119.264 12.192 219.552 119.008 219.552 149.152 0 14.048-14.144 148.864-13.152 276.576zM158.336 180.512c-27.552 3.744-85.6 12.672-100.928 23.552-20.416 14.432-13.6 200.672 0 217.344 10.528 12.864 78.912 25.088 109.216 29.984-2.72-88.064-7.232-191.296-8.288-270.88zM167.040 465.728l1.344 57.664c-0.288-17.92-0.704-37.344-1.344-57.664zM319.296 21.952c-58.624 16.704-107.168 49.76-107.168 49.76s10.272 383.488 25.248 400.256 73.344 16.736 88.32 0c14.976-16.8-6.4-450.016-6.4-450.016zM537.344 11.2c-72.32-22.112-154.816-5.536-154.816-5.536s-2.784 456.224 9.664 476.32c12.48 20.128 126.016 16.768 136.96 0 10.912-16.768 8.192-470.784 8.192-470.784zM587.584 29.28c0 0-20.928 446.016-9.504 462.784 11.488 16.736 56.192 16.736 67.648 0s19.488-414.624 19.488-414.624-30.496-27.456-77.632-48.16z" />
<glyph unicode="&#xe922;" glyph-name="035" horiz-adv-x="344" d="M0.672 684.288c0 0-24-804.416 217.344-745.152 0 0 121.792 19.744 121.376 152.448-0.384 118.88 0 618.144 0 618.144l-338.72-25.44zM305.504 114.848c0.32-99.52-91.072-114.4-91.072-114.4-181.12-44.48-163.136 652.448-163.136 652.448l254.208 19.072c0-0.032-0.256-467.936 0-557.12zM127.852 795.554c-12.853-30.102-44.197-45.571-70.008-34.55s-36.316 44.358-23.463 74.461c12.853 30.102 44.197 45.571 70.008 34.55s36.316-44.358 23.463-74.461zM332.517 829.81c-22.942-53.697-71.698-84.343-108.899-68.448s-48.761 72.309-25.818 126.007c22.942 53.697 71.698 84.343 108.899 68.448s48.761-72.309 25.818-126.007zM280.672 501.344c-24.768-8.768-52.064 0.32-63.552 22.624-3.264 6.24-4.864 12.928-5.152 19.616l-140.608-10.528c0 0 9.696-536.064 134.304-503.328 0 0 75.296 12.192 75.040 94.144-0.128 56.768-0.064 279.040-0.032 377.472z" />
<glyph unicode="&#xe923;" glyph-name="036" d="M1024 650.528c0 85.952-60.32 155.52-134.688 155.52-39.328 0-74.4-19.808-99.008-50.88-45.184 105.664-84.384 187.552-95.808 188.672-32 3.136-194.976-86.848-194.496-106.656s43.808-62.048 48.256-103.424c9.632-88.768-48.416-156.512-125.024-176.256-106.368-27.392-140.896 126.336-158.208 134.784-17.312 8.48-235.712-105.376-234.528-144.608 0.48-14.816 42.656-103.808 96.672-209.184-70.816-4.48-127.168-71.648-127.168-154.592 0-85.92 60.288-155.488 134.656-155.488 50.016 0 93.184 31.872 116.416 78.688 51.328-91.584 94.368-161.76 105.44-164.672 31.648-8.48 209.152 99.744 210.048 118.016 0.864 18.24-47.456 63.904-52.16 107.328-9.6 88.8 49.088 154.048 125.024 176.256 119.52 34.912 153.856-146.72 160.288-152.576 6.4-5.888 162.016 70.368 167.968 94.368 2.112 8.736-29.696 99.008-72.32 209.92 71.488 3.648 128.64 71.296 128.64 154.784z" />
<glyph unicode="&#xe924;" glyph-name="037" horiz-adv-x="980" d="M979.968 541.856c-4.48 52.384-221.856 66.464-221.856 66.464s49.664 183.552 15.232 206.4c-34.368 22.848-170.304-82.688-170.304-82.688s-139.616 239.52-184.128 227.52c-44.512-12-53.76-289.664-53.76-289.664s-195.2 59.136-216.096 24.64c-20.96-34.432 79.072-247.040 79.072-247.040s-243.808-104.736-227.296-161.664 256-36.672 256-36.672-30.016-199.904 0-228.416c29.952-28.48 215.552 87.872 215.552 87.872s136.256-184.064 176.672-172.128c40.448 12 33.248 265.568 33.248 265.568s152.384-65.984 180.832-26.432c28.48 39.616-71.232 200-71.232 200s192.512 113.856 188.064 166.24zM728.416 325.6c-59.872-128.672-203.328-188.768-320.48-134.272-117.024 54.56-163.296 203.072-103.328 331.744 60 128.672 203.456 188.8 320.544 134.304 116.96-54.592 163.168-203.104 103.264-331.776zM351.155 493.616c46.631 100.086 159.31 146.336 251.675 103.303s129.44-159.055 82.809-259.141c-46.631-100.086-159.31-146.336-251.675-103.303s-129.44 159.055-82.809 259.141z" />
<glyph unicode="&#xe925;" glyph-name="038" horiz-adv-x="963" d="M462.496 269.504c20.672 0 238.368 235.104 257.536 381.28 29.76 225.952-93.056 309.216-227.584 309.216-144.672 0-261.952-166.016-236.448-330.496 24.544-158.144 175.072-360 206.496-360zM409.536 795.136c19.36 59.456 71.424 95.776 116.288 81.152 44.768-14.56 65.504-74.624 46.080-134.016-19.328-59.488-71.36-95.808-116.224-81.216-44.832 14.592-65.504 74.592-46.144 134.080zM801.344 631.552l-86.752-460.896 23.744 394.208c-68.672-164.48-256.384-363.936-276.96-363.936-36.672 0-212.288 235.392-240.864 419.872-11.040 71.424 0.96 143.008 29.088 204.864l-249.6-137.856v-715.776l239.488 79.84 12.992 363.008 39.232-354.368 398.304-124.512 180.256 113.28 92.672 648.832-161.6-66.56z" />
<glyph unicode="&#xe926;" glyph-name="039" horiz-adv-x="993" d="M785.28 910.624c-189.536 133.728-526.4-22.432-712.8-249.504 0 0-121.504-146.496-49.888-236.736 34.112-42.976 129.408-21.824 129.408-21.824s216.512 55.808 178.432-202.304c0 0-23.328-152.416 32.064-205.76 60.352-58.048 137.664-83.136 252.064-27.136 413.76 202.4 513.92 701.28 170.72 943.264zM308.352 533.408c-39.616-47.424-102.176-60.48-139.808-29.12-37.568 31.392-36 95.328 3.584 142.784 39.616 47.424 102.144 60.48 139.808 29.056 37.632-31.392 35.968-95.296-3.584-142.72zM440.256 777.664c43.936 52.672 113.44 67.2 155.2 32.32 41.792-34.848 40-105.824-4-158.496-43.936-52.672-113.44-67.136-155.2-32.288-41.792 34.816-40 105.76 4 158.464zM634.56 182.24c-43.968-52.672-113.44-67.136-155.264-32.256-41.792 34.816-40 105.792 4 158.432 43.968 52.672 113.44 67.232 155.264 32.32 41.76-34.784 40-105.728-4-158.496zM695.936 552.032c-37.664 31.36-36 95.296 3.552 142.752 39.616 47.424 102.176 60.48 139.808 29.056 37.6-31.328 36-95.296-3.616-142.72-39.552-47.456-102.144-60.48-139.744-29.088zM777.216 348.256c-29.216 24.448-27.968 74.048 2.816 110.976 30.752 36.864 79.36 46.976 108.64 22.624 29.248-24.416 28-74.080-2.784-110.976-30.816-36.864-79.456-47.008-108.672-22.624z" />
<glyph unicode="&#xe927;" glyph-name="040" horiz-adv-x="648" d="M369.248 959.232c-339.968-29.472-367.2-394.4-367.2-394.4-20.384-197.152 115.584-260.672 154.112-301.44 38.528-40.736 72.544-122.336 72.544-122.336 129.216-56.672 213.024 36.256 213.024 36.256 13.632 74.816 126.944 281.056 126.944 281.056 224.384 432.864-86.592 510.624-199.424 500.864zM268.672 749.952c-44.928-42.656-98.592-59.136-119.808-36.8-21.216 22.368-1.984 75.104 42.944 117.76s98.56 59.104 119.776 36.736c21.248-22.368 2.016-75.040-42.912-117.696zM235.84 94.368c12.064-87.328 94.496-71.2 94.496-71.2 110.688 11.328 100.096 104.256 100.096 104.256-77.056-69.088-194.592-33.056-194.592-33.056zM255.2-0.096c8.672-73.024 87.616-63.456 87.616-63.456 96.896 9.92 80.768 98.080 80.768 98.080-74.752-80.48-168.384-34.624-168.384-34.624z" />
<glyph unicode="&#xe928;" glyph-name="041" horiz-adv-x="992" d="M147.36 960c64.928 1.792 204.768-187.648 209.312-230.976 4.512-43.328-135.328-115.456-137.12-144.352-1.792-28.864 356.352-400.544 389.728-404.16 33.376-3.552 92.064 156.128 137.12 158.816 45.12 2.688 234.56-196.672 245.44-230.976 10.816-34.272-166.016-288.672-483.584-108.288-193.408 109.952-458.016 383.36-504.32 626.112-29.76 155.84 118.048 333.12 143.424 333.824z" />
<glyph unicode="&#xe929;" glyph-name="042" horiz-adv-x="1019" d="M933.792 902.048c-145.856 171.392-383.744-92.096-383.744-92.096l-28.288-27.52 319.584-320.672c40.896 38.592 73.952 69.728 92.448 87.232 92.128 87.008 133.824 195.744 0 353.056zM48.608 11.712c173.984-184.224 342.816 25.6 342.816 25.6s20.832 19.68 54.464 51.36l-291.52 336.928c-267.84-256.672-105.76-413.888-105.76-413.888zM201.28 470.656l264.608-363.168c83.712 79.008 222.016 209.504 329.536 310.88l-291.84 346.368-302.304-294.080zM419.648 601.632c21.92 0 39.648-23.776 39.648-53.12s-17.792-53.12-39.648-53.12-39.648 23.776-39.648 53.12 17.76 53.12 39.648 53.12zM327.456 423.68c-21.952 0-39.648 23.776-39.648 53.088 0 29.376 17.76 53.12 39.648 53.12s39.648-23.744 39.648-53.12c0.032-29.312-17.728-53.088-39.648-53.088zM409.376 321.28c-21.92 0-39.616 23.776-39.616 53.12s17.76 53.088 39.616 53.088c21.92 0 39.648-23.744 39.648-53.088s-17.728-53.12-39.648-53.12zM491.328 218.848c-21.984 0-39.68 23.776-39.68 53.12s17.76 53.12 39.68 53.12c21.888 0 39.584-23.776 39.584-53.12s-17.696-53.12-39.584-53.12zM501.568 392.992c-21.92 0-39.616 23.744-39.616 53.088s17.76 53.12 39.616 53.12c21.92 0 39.648-23.776 39.648-53.12s-17.76-53.088-39.648-53.088zM583.52 290.56c-21.952 0-39.648 23.776-39.648 53.088 0 29.344 17.76 53.088 39.648 53.088s39.648-23.744 39.648-53.088c0.032-29.312-17.728-53.088-39.648-53.088zM675.712 478.752c21.92 0 39.648-23.776 39.648-53.12s-17.792-53.12-39.648-53.12-39.648 23.776-39.648 53.12 17.76 53.12 39.648 53.12zM593.792 581.184c21.888 0 39.584-23.776 39.584-53.12s-17.76-53.12-39.584-53.12c-21.984 0-39.68 23.776-39.68 53.12s17.728 53.12 39.68 53.12zM551.488 630.464c0-29.344-17.76-53.12-39.648-53.12s-39.648 23.776-39.648 53.12c0 29.312 17.792 53.088 39.648 53.088 21.888 0 39.648-23.776 39.648-53.088z" />
<glyph unicode="&#xe92a;" glyph-name="043" d="M38.276 898.525c36.337 59.216 111.569 79.13 168.035 44.481s72.785-110.743 36.448-169.959c-36.337-59.216-111.569-79.13-168.035-44.481s-72.785 110.743-36.448 169.959zM38.307 518.894c36.344 59.209 111.576 79.112 168.036 44.456s72.767-110.749 36.424-169.958c-36.344-59.209-111.576-79.112-168.036-44.456s-72.767 110.749-36.424 169.958zM38.331 139.245c36.344 59.209 111.576 79.112 168.036 44.456s72.767-110.749 36.424-169.958c-36.344-59.209-111.576-79.112-168.036-44.456s-72.767 110.749-36.424 169.958zM393.406 920.064v-138.24h600.254v169.832zM393.406 402.565h600.254v169.832l-600.254-31.592zM393.406 23.305h600.254v169.832l-600.254-31.592z" />
<glyph unicode="&#xe92b;" glyph-name="044" horiz-adv-x="877" d="M160.544 482.688c11.424-62.4-128.672-117.184-128.672-117.184l5.056-79.008c49.696 10.176 154.144 14.016 154.144 14.016l15.296 64.96c-48.384 3.808-94.88-10.208-94.88-10.208s64.928 48.896 89.824 82.816c33.12 45.248 47.168 142.688-43.328 147.808-90.464 5.088-157.984-98.112-157.984-98.112l33.376-43.776c65.984 88.384 119.296 81.536 127.168 38.688zM120.608 832.448c-15.296-48.448-16.576-161.792-16.576-161.792 28.032-11.488 66.24 5.056 66.24 5.056-24.224 126.144 12.768 271.392 12.768 271.392l-53.536 12.896c-3.808-53.344-98.080-161.984-98.080-161.984l34.368-28.032c26.784 20.384 54.816 62.464 54.816 62.464zM183.040 126.432l56.064 56.576-19.36 74.304-174.464-51.712 4.832-48.448 114.72 19.328-66.24-63.008 8.672-43.616c11.904 3.264 129.056 20.32 64-63.008-47.296-60.512-139.232 36.576-139.232 36.576l-19.136-23.616c0 0 100.384-148.64 192.256-50.048 106.016 113.664-22.112 156.672-22.112 156.672zM370.208 826.784v-116.672h506.464v143.328zM370.208 390.112h506.464v143.328l-506.464-26.656zM370.208 70.112h506.464v143.328l-506.464-26.656z" />
<glyph unicode="&#xe92c;" glyph-name="045" horiz-adv-x="752" d="M678.368 869.696c-162.368 205.632-656.704 39.68-678.368-292.288l129.92-36.096c0 0 140.704 202.048 270.624 129.92 129.92-72.16 7.264-248.992-223.712-324.736l83.008-202.048 144.32 25.248-7.264 140.704c0 0 549.504 219.744 281.472 559.296zM277.465-13.445c-15.404 43.181 16.223 93.922 70.64 113.334s111.017 0.144 126.421-43.037c15.404-43.181-16.223-93.922-70.64-113.334s-111.017-0.144-126.421 43.037z" />
<glyph unicode="&#xe92d;" glyph-name="046" horiz-adv-x="743" d="M493.92 960h-493.92c0 0 27.328-511.968 0-999.936 0 0 475.36-32.736 718.528-21.856l18.048 678.112-258.656-4 16 347.68zM537.312 960l-0.928-277.76 206.72-20.928z" />
<glyph unicode="&#xe92e;" glyph-name="047" horiz-adv-x="743" d="M537.312 960l-0.896-277.76 206.72-20.928zM493.952 960h-493.952c0 0 27.328-511.968 0-999.904 0 0 475.328-32.768 718.528-21.92l18.016 678.144-258.656-4 16.064 347.68zM94.592 823.36h220.256l-14.528-210.592h-205.728v210.592zM593.184 50.976l-498.592-9.696v77.44l498.624 41.152-0.032-108.896zM593.184 235.072l-498.592-9.728v77.44l498.624 41.152-0.032-108.864zM593.184 537.728v-108.928l-498.592-9.664v77.472l498.592 41.12z" />
<glyph unicode="&#xe92f;" glyph-name="048" horiz-adv-x="672" d="M659.232 529.6c48.992 191.968-42.368 381.056-204.16 422.368-161.856 41.344-332.704-80.736-381.76-272.672-40.16-157.216 13.952-312.448 123.68-386.176-67.936-42.72-113.6-111.648-143.488-177.824l-36.992-103.232c-12.352-44.864-16.512-76.064-16.512-76.064l575.392 52.8c0 0 2.24 12.192 4 31.872l-0.448 93.76c-6.56 62.752-28.32 134.496-87.488 178.784 78.016 47.936 141.024 131.712 167.776 236.384z" />
<glyph unicode="&#xe930;" glyph-name="049" horiz-adv-x="937" d="M891.232 188.768c-43.84 20.128-100.416-9.312-126.304-65.728-1.312-2.88-2.432-5.76-3.552-8.672-6.56 62.752-28.32 134.528-87.456 178.816 77.984 47.936 140.928 131.712 167.68 236.352 48.992 191.968-42.336 381.056-204.16 422.368-161.888 41.376-332.736-80.704-381.792-272.64-40.16-157.216 13.952-312.48 123.68-386.144-67.936-42.752-113.568-111.68-143.488-177.824 1.184 48.256-19.552 90.848-57.856 108.448-56.064 25.76-128.416-11.872-161.568-84.064-33.152-72.224-14.592-151.616 41.472-177.376 46.272-21.248 103.616 0.768 140.896 49.824-12.32-44.928-16.48-76.128-16.48-76.128l575.424 52.832c0 0 2.208 12.16 4 31.84 7.616-16.096 19.616-28.928 35.52-36.256 43.808-20.128 100.352 9.28 126.272 65.728 25.952 56.48 11.52 118.496-32.288 138.624zM396.384 558.848c11.776 54.528 55.648 91.328 98.016 82.208 18.624-4.032 33.856-16.288 44.064-33.376 9.984 59.232 46.368 102.688 86.784 99.936 44.608-3.040 76.864-61.024 72.224-129.568s-44.544-121.632-89.056-118.592c-26.688 1.824-48.928 23.456-61.568 55.264-14.944-48.416-55.648-79.744-95.136-71.264-42.336 9.184-67.104 60.832-55.328 115.392z" />
<glyph unicode="&#xe931;" glyph-name="050" d="M1021.664 503.616c14.496 104.8-40.256 198.976-122.272 210.304s-160.256-64.448-174.752-169.216c-9.728-70.176 11.712-135.424 51.488-174.4-32.576-24.064-54.88-59.584-70.176-97.728 2.208 72.928-14.368 150.656-85.12 183.296 35.008 33.92 60.672 83.904 68.672 141.952 16.032 116.096-44.64 220.384-135.424 232.928-90.848 12.544-177.536-71.328-193.568-187.424-11.52-83.328 16.608-160.384 66.944-201.984-63.328-40-106.688-116.32-133.056-208.864-5.184 24.832-17.312 47.072-41.312 59.52 37.12 25.248 65.504 71.328 73.184 126.88 12.576 90.944-34.944 172.672-106.112 182.464-71.2 9.856-139.104-55.904-151.68-146.848-9.76-70.624 16.736-135.424 62.336-165.632-121.632-48.672-130.816-215.712-130.816-215.712l269.44 31.072c-1.184-10.24-2.304-20.64-3.2-31.072l406.656 42.080c-1.216-16.352-1.632-27.936-2.080-32.064h273.984c0 0 91.136 211.776 11.936 289.696 33.088 30.624 57.44 76.768 64.928 130.752z" />
<glyph unicode="&#xe932;" glyph-name="051" d="M1021.664 503.616c14.496 104.8-40.256 198.976-122.272 210.304s-160.256-64.448-174.752-169.216c-9.728-70.176 11.712-135.424 51.488-174.4-32.576-24.064-54.88-59.584-70.176-97.728 2.208 72.928-14.368 150.656-85.12 183.296 35.008 33.92 60.672 83.904 68.672 141.952 16.032 116.096-44.64 220.384-135.424 232.928-90.848 12.544-177.536-71.328-193.568-187.424-11.52-83.328 16.608-160.384 66.944-201.984-63.328-40-106.688-116.32-133.056-208.864-5.184 24.832-17.312 47.072-41.312 59.52 37.12 25.248 65.504 71.328 73.184 126.88 12.576 90.944-34.944 172.672-106.112 182.464-71.2 9.856-139.104-55.904-151.68-146.848-9.76-70.624 16.736-135.424 62.336-165.632-121.632-48.672-130.816-215.712-130.816-215.712l269.44 31.072c-1.184-10.24-2.304-20.64-3.2-31.072l406.656 42.080c-1.216-16.352-1.632-27.936-2.080-32.064h273.984c0 0 91.136 211.776 11.936 289.696 33.088 30.624 57.44 76.768 64.928 130.752zM107.68 401.28l170.272 52.576c0 0-1.536-131.904-96.832-131.904-75.584-0.032-73.44 79.328-73.44 79.328zM417.728 624.704c4.896 35.488 26.336 61.92 47.872 58.912 11.648-1.632 20.928-11.52 26.208-25.888 7.712 47.488 39.040 82.080 71.040 77.664 32.704-4.544 53.792-48.064 46.976-97.28-6.848-49.184-38.88-85.44-71.616-80.864-20.896 2.88-36.992 21.792-44.128 47.872-6.976-30.944-26.528-52.768-46.208-50.048-21.6 2.944-35.072 34.144-30.144 69.632zM851.776 556.352c-0.224 1.344-0.704 7.264-0.704 7.264l113.088 33.376c0 0 22.624-92.576-39.136-114.592-41.28-14.688-60.224 24.192-68.288 51.648 0.416-21.216-5.248-51.136-37.824-62.24-52.608-17.984-62.624 62.144-62.624 62.144l95.488 22.4z" />
<glyph unicode="&#xe933;" glyph-name="052" d="M1004.288 944h-5.12c0 0 43.008-169.408 4.992-205.408-15.936-15.136-70.624 19.488-132.32 93.312-54.688 65.344-107.392 62.336-124.672 58.688-17.248-3.712-130.784-32.864-130.784-188.608l2.656-0.672c-12.128 2.72-24.736 5.216-37.568 7.328l-79.264-162.432-2.208 0.352c209.504-33.344 224.064-90.336 224.064-90.336v0c25.984 47.936 43.936 77.92 45.984 89.664 2.56 14.592 7.392 109.664-112.096 145.408-4.8 1.44-9.952 2.848-15.136 4.224l2.080-0.544c0 0 15.296 142.336 109.216 155.552 64 8.96 126.496-74.4 126.496-74.4s102.176-116.672 138.496-64.64c46.080 66.112-14.816 232.512-14.816 232.512zM208.32 569.344c93.504-1.984 170.112-7.328 232.864-14.624 2.112-0.256 4.064-0.544 6.144-0.736l-1.824 0.256 136 154.56c-66.816 11.328-139.2 13.888-174.912-3.872-60.672-30.112-336.672-201.632-394.432-389.504-41.312-134.304 27.008-266.848 136.8-316.704 50.304-22.848 272.192-112.096 410.912 141.248 59.008 107.808 110.688 214.432 145.312 280.672l-0.576-0.96c-92.8 107.648-496.288 149.664-496.288 149.664z" />
<glyph unicode="&#xe934;" glyph-name="053" d="M1023.712 574.368c-5.408 28.448-33.92 82.656-54.176 92.128-11.232 5.216-280.32-34.592-526.816-78.848-3.808 17.984-26.368 139.872 50.88 181.664 56.864 30.752 144.48-25.728 144.48-25.728s136.48-73.76 152.352-12.288c20.096 77.92-94.944 212.704-94.944 212.704l-4.8-1.824c0 0 99.328-143.776 76.256-190.784-9.664-19.68-72.992-6.272-156.544 41.344-74.016 42.208-122.4 21.056-137.312 11.584-14.848-9.472-110.752-76.16-57.152-221.536-189.248-34.464-358.848-70.656-378.56-89.792-46.048-44.672-39.296-487.744-32.512-504 6.752-16.288 9.536-12.864 16.704-22.592 7.2-9.728 882.048 81.984 906.464 98.208 24.416 16.384 101.12 481.312 95.68 509.76zM879.904 560.096c12.096-6.784 7.648-81.408 0.96-107.2l-108.128-15.040c-3.392 0.672-6.176 1.408-8.544 2.336l5.088 105.312c27.904 11.2 98.88 21.184 110.624 14.592zM61.184 117.536l119.68 17.248v-80.64l-116.448-13.952c-6.336 14.048-7.136 53.984-3.232 77.344zM65.6 191.392c-7.2 10.528-8.544 51.84-4.992 77.184l120.256 19.040v-84.672l-109.408-15.232c-2.72 1.056-4.864 2.272-5.856 3.68zM588.864 259.712l-106.144-14.816 4.384 91.104 101.76 16.096v-92.384zM351.104 314.496l99.776 15.744v-89.76l-104.032-14.464 4.256 88.48zM314.848 221.632l-102.112-14.208 4.16 85.952 97.984 15.424-0.032-87.168zM621.216 264.192l4.544 93.728 99.136 15.648v-94.944l-103.68-14.432zM209.408 138.912l105.44 15.232v-83.872l-109.376-13.088 3.936 81.728zM343.552 158.24l107.328 15.456v-87.2l-111.424-13.344 4.096 85.088zM479.456 177.856l109.344 15.776v-90.56l-113.632-13.632 4.288 88.416zM724.864 213.248v-93.952l-111.328-13.312 4.448 91.776 106.88 15.488zM869.12 298.688l-107.52-14.976c-1.792 0.32-3.328 0.672-4.832 1.056l4.576 94.496 111.616 17.664c5.632-22.080 1.696-77.024-3.84-98.24zM724.864 431.264l-96.256-13.408 4.832 100.192c22.080 8.192 66.208 15.456 91.392 15.776v-102.56zM588.864 412.32l-98.72-13.728 4.768 99.136c20.896 8.576 67.584 16.544 93.984 16.864v-102.272zM314.848 374.208l-94.688-13.12 5.12 105.984c21.12 8.032 63.744 15.264 89.568 16v-108.864zM748.8 122.208l4.64 95.2 120.96 17.44c4-30.688-2.176-91.424-8.48-98.176-0.128-0.128-0.48-0.32-0.64-0.448l-116.48-14.016zM450.848 498.784v-105.664l-96.64-13.408 4.96 102.24c20.384 8.384 65.024 16.096 91.68 16.832zM77.376 440.8c7.008 10.4 70.624 22.464 103.456 23.072v-108.288l-97.952-13.6c-2.528 0.992-4.544 2.112-5.472 3.488-9.568 13.984-8.832 82.208-0.032 95.328z" />
<glyph unicode="&#xe935;" glyph-name="054" horiz-adv-x="1004" d="M70.865 107.661c0 0-34.582-106.506-70.865-143.719 0 0 10.843-11.453 38.785-27.878 0 0 71.795 74.169 110.324 100.507 0-0.064-11.132 86.649-78.244 71.090zM972.19 829.69c-125.562 239.735-331.228 75.292-331.228 75.292 274.061-80.361 236.463-418.197 236.463-418.197 211.729 125.53 94.765 342.905 94.765 342.905zM452.203 343.996c65.027 83.537 388.812 288.209 389.229 288.465-14.051 38.079-30.316 69.357-47.767 95.15-89.696-37.79-425.031-316.856-425.031-316.856 119.242 159.246 388.267 361.191 388.716 361.544-87.13 88.573-184.814 72.565-184.814 72.565-164.026-149.75-374.28-404.371-453.389-502.216-9.977-11.421-20.66-24.734-32.112-40.004 0 0 91.557 75.645 121.424 38.721 29.963-36.956 21.109-110.901 21.109-110.901s59.83 75.645 95.054 36.956c35.192-38.689 12.287-91.557 0-105.576 0 0 51.008 51.040 61.594 31.631 10.522-19.344 1.732-63.358-29.963-103.779 0 0 5.839 6.737 13.987 17.227 242.27 297.223 507.252 379.862 507.252 379.862-5.325 35.096-12.094 66.695-19.922 95.342-120.846-49.628-405.365-238.131-405.365-238.131zM365.971 161.845c-1.796 14.051-41.351 0-41.351 0 6.127 14.051-2.663 51.874-19.376 72.982s-75.677-4.427-75.677-4.427c0 17.644-23.739 62.46-50.141 80.97-26.338 18.414-92.391-8.79-92.391-8.79 11.453-99.449-16.168-194.951-16.168-194.951 140.094 52.868 78.244-71.186 78.244-71.186 92.423 54.472 207.142 53.189 207.142 53.189 26.434 44.976 9.72 72.213 9.72 72.213z" />
<glyph unicode="&#xe936;" glyph-name="055" d="M0 415.136c0 0 169.088-194.112 353.888-479.136 0 0 281.824 391.424 670.112 670.144l-206.688 353.856c0 0-283.424-338.816-472.832-682.656 0 0-156.608 197.28-263.072 291.232l-81.408-153.44z" />
<glyph unicode="&#xe937;" glyph-name="056" d="M1024 677.856l-155.424 266.144c0 0-20.384-24.352-52.672-65.536-125.952-12.672-611.232-62.784-815.904-100.768 0 0 39.872-572.704 45.792-841.152 0 0 458.112 29.824 812.576 28.608l-7.52 571.968c53.312 48.288 111.392 96.416 173.152 140.736zM165.984 79.552l-34.368 583.68 592.096 93.216c-67.232-92.352-146.272-208.672-210.848-325.952 0 0-117.792 148.384-197.888 219.072l-61.216-115.392c0 0 127.2-146.016 266.144-360.384 0 0 82.208 114.144 214.848 251.008l-13.76-310.88-555.008-34.368z" />
<glyph unicode="&#xe938;" glyph-name="057" horiz-adv-x="904" d="M530.112 454.4c86.176 75.296 184.544 154.272 294.688 232.48l-196.608 273.12c0 0-159.744-127.072-326.208-340.064-139.264 109.6-214.816 186.432-214.816 186.432l-87.168-84.352c50.88-101.376 112.384-194.176 177.984-277.792-69.44-109.984-132.992-234.112-177.984-369.152l98.304-71.040c0 0 80.736 109.984 234.464 265.216 211.872-214.368 415.52-333.248 415.52-333.248l155.584 298.432c-141.056 72.288-266.24 148.064-373.76 219.968z" />
<glyph unicode="&#xe939;" glyph-name="058" horiz-adv-x="939" d="M841.824 207.712l-20 431.072 116.928 109.152-177.568 212.064-77.984-101.376c-189.568-20.48-538.496-59.744-683.2-86.624 0 0 39.616-569.216 45.504-836 0 0 455.328 29.632 807.616 28.448l-4.8 103.84 90.432 64.224-96.928 75.2zM717.44 304.288l-138.656 107.68 139.648 130.336-0.992-238.016zM159.104 177.76l-24.832 421.632 193.888-202.016-169.056-219.616zM439.168 281.696l168.992-176.128-383.104-23.68 214.112 199.808zM428.928 528.32l-189.376 147.008 344.288 54.208-154.912-201.216z" />
<glyph unicode="&#xe93a;" glyph-name="059" horiz-adv-x="1015" d="M1014.848 638.752l-361.728-52.352 19.648 373.6-357.056-87.552 21.472-331.776-337.184-48.8 22.048-241.536 333.376 8.864 20.928-323.2h242.496l17.44 330.624 323.808 8.576z" />
<glyph unicode="&#xe93b;" glyph-name="060" horiz-adv-x="944" d="M656.32 373.248l-204.864-45.888 149.824 336.352-240.576-82.624-47.456-393.824 95.424 26.976-70.336-278.24zM810.656 666.496c17.056 82.56 14.304 183.616-68.672 251.008-123.136 99.84-258.432 7.392-308.416-108.448-48.608 57.952-122.816 98.208-226.688 32-122.944-78.4-126.368-169.216-81.312-233.184-67.744-5.952-138.464-37.76-123.52-149.024 19.808-147.392 156.512-177.344 296.256-168.896l-9.664 309.056 402.88 133.504-172.736-360.768 220.576 75.296-64-107.936c153.696 30.624 271.2 83.776 268.512 190.080-3.616 137.664-73.664 151.168-133.216 137.312z" />
<glyph unicode="&#xe93c;" glyph-name="061" horiz-adv-x="811" d="M548.448-64l-63.808 171.872c0 0-111.136-85.952-127.712-85.952s-161.44 68.704-174.336 85.952 0 137.536 0 137.536-106.208-10.432-122.784 0c-16.576 10.4-65.056 152.832-54.016 174.304 11.040 21.504 69.984 68.16 122.752 51.584 52.8-16.608 137.504-78.624 137.504-78.624l95.776-54.016c0 0-347.456 391.072-356.032 412.544-8.608 21.504-6.752 70.016 0 88.416 6.752 18.432 53.408 101.28 93.312 115.424 39.872 14.112 87.776-4.928 109.248-19.040s276.224-531.008 276.224-531.008-54.24 173.216-43.36 190.976 126.24 33.728 163.744 6.688c37.44-27.008 58.944-182.944 58.944-182.944s-9.216 145.504 14.112 158.4c23.328 12.864 114.752-61.376 130.752-130.112 15.936-68.736-61.376-286.912-83.488-300.8-22.048-13.952-149.824-14.752-149.824-14.752l83.488-162.016-110.496-34.432z" />
<glyph unicode="&#xe93d;" glyph-name="062" horiz-adv-x="954" d="M840.928 368.288c0 0 35.232 559.072 10.528 584.096-35.136 35.648-836.48-63.904-850.56-92.032-14.048-28.128 140.576-569.344 140.576-569.344l-73.792-288.256c0 0 35.136-66.752 63.264-66.752 28.096 0 783.776 59.744 804.896 77.312 21.056 17.568 12.736 58.816 17.568 80.8 4.768 22.048-112.48 274.176-112.48 274.176zM83.040 807.616c17.568 21.088 694.464 94.88 708.512 77.312 14.016-17.568-6.88-421.12-13.92-440.736-7.008-19.648-569.344-79.424-593.952-65.344-24.608 14.048-118.208 407.68-100.64 428.768zM796.32 376.704c0 0-282.24-106.848-595.072-54.080l595.072 54.080zM637.216 84.672c-9.632-8.224-236.128-22.944-240.992-16.16-2.176 3.072 0.96 19.968 6.272 37.856 0.704 2.4 1.504 4.864 2.272 7.328 0.128 0.352 0.224 0.672 0.352 1.056 0.704 2.144 1.472 4.384 2.24 6.496 0.192 0.576 0.384 1.024 0.576 1.568 0.704 1.984 1.408 3.808 2.144 5.664 0.256 0.672 0.512 1.312 0.768 1.984 0.672 1.632 1.344 3.2 2.016 4.672 0.32 0.672 0.64 1.408 0.928 1.984 0.672 1.376 1.312 2.624 1.92 3.84 0.352 0.672 0.704 1.344 1.056 1.984 0.64 1.12 1.248 2.048 1.856 3.040 0.352 0.544 0.672 1.12 1.056 1.6 0.64 0.896 1.28 1.632 1.888 2.24 0.288 0.352 0.608 0.736 0.896 0.992 0.896 0.8 1.792 1.44 2.656 1.728 12.832 4.064 165.44 24.384 175.776 17.504 0.672-0.48 1.376-1.12 2.208-1.984 0.544-0.64 1.088-1.376 1.696-2.112 0.352-0.448 0.672-0.672 0.992-1.184s0.704-1.056 1.088-1.632c5.76-8.064 13.312-21.632 19.616-35.328 9.088-19.52 15.52-39.072 10.72-43.136zM859.328 132.8c-7.2-4.736-89.76-16.864-196.192-30.016-2.592 8.704-5.952 18.24-9.632 27.808 84.224 9.312 148.192 17.76 153.984 21.056 17.92 10.24-44.672 112.864-61.088 119.2-13.312 5.056-492.864-28.736-498.72-45.76-5.888-16.992-59.2-112.16-44.192-127.328 5.152-5.184 75.68-1.728 166.752 5.568-2.976-11.52-5.504-22.944-7.264-32.704-115.968-10.496-208.096-15.744-214.432-8.128-17.568 21.056 45.696 152.32 52.704 175.712s571.264 66.912 586.912 59.744c19.36-8.704 92.288-151.104 71.168-165.152z" />
<glyph unicode="&#xe93e;" glyph-name="063" d="M944.288 602.208c-35.328 5.888-68.672-19.136-68.672-19.136-0.256-0.352-0.512-0.704-0.8-1.088 1.024 35.392 0.832 69.344 0.384 99.616-1.504 92.672-229.504 182.4-420.704 182.4s-454.496-95.584-454.496-191.2c0 0-8.832-578.016 322.112-619.232 0 0 95.616-22.048 236.8 0 112.16 17.536 201.92 132.736 251.84 232.416 0-0.064 0-0.192 0-0.192 225.376 39.52 212.96 195.776 212.96 195.776 4.416 79.456-44.16 114.752-79.424 120.64zM447.168 477.184c-338.304-5.856-398.592 132.384-398.592 132.384 110.080 139.712 410.336 132.384 410.336 132.384 285.344 0 375.104-132.384 375.104-132.384-117.696-154.432-386.848-132.384-386.848-132.384zM938.4 425.728c0 0-17.664-45.12-97.056-67.392 16.48 49.312 25.088 102.816 29.632 155.296 0.032 0.096 0.096 0.224 0.16 0.32 0 0 29.024 19.168 48.192 13.28 19.072-5.92 55.872-36.8 19.072-101.504z" />
<glyph unicode="&#xe93f;" glyph-name="064" horiz-adv-x="585" d="M0 347.2l225.408 35.168-197.216-446.368 556.48 634.432-292.352 12.064 228.96 377.504h-401.536z" />
<glyph unicode="&#xe940;" glyph-name="065" d="M495.2 723.040c-117.472-40.896-184.608-154.784-149.92-254.24 34.688-99.52 158.016-146.976 275.456-106.016 117.504 40.896 184.64 154.752 149.952 254.24-34.688 99.52-158.016 146.944-275.488 106.016zM574.368 598.432c-30.688-10.688-62.848 1.728-71.904 27.648-9.056 25.984 8.448 55.648 39.072 66.368 30.688 10.624 62.848-1.728 71.872-27.68 9.152-25.92-8.416-55.648-39.040-66.336zM883.808 848.96c-101.536 77.536-262.336 95.2-373.792 95.040-105.12-0.16-188.576-52.096-225.024-92.352-36.448-40.288-47.712-102.016-84.16-130.784-36.448-28.736-83.744-37.28-137.44-112.064-53.696-74.816-86.304-187.936-44.096-247.36 42.176-59.424 94.112-73.344 122.88-123.264 28.768-49.856 9.44-139.488 59.296-210.432 49.888-71.008 184.096-95.904 235.904-57.568 51.776 38.368 85.568 65.984 166.144 81.376 80.544 15.328 142.624-65.984 240.416-23.808 97.856 42.112 143.872 115.040 161.12 203.264 17.248 88.256-7.616 144.256-9.536 217.12s142.368 206.656-111.712 400.832zM627.296 318.592c-143.904-50.144-295.008 8-337.472 129.888-42.496 121.952 39.712 261.376 183.648 311.52s295.008-8 337.504-129.92c42.432-121.856-39.744-261.408-183.68-311.488z" />
<glyph unicode="&#xe941;" glyph-name="066" horiz-adv-x="940" d="M902.080 778.592c-102.080 189.248-378.272 238.336-616.864 109.664s-349.28-386.432-247.232-575.68c39.616-73.504 105.568-125.728 185.28-154.752 0 0-17.472-147.616 0-167.36s96.64-13.184 118.016 0c15.84 9.76 21.792 96.384 23.808 140.992 15.392-0.48 31.008-0.192 46.72 0.736-3.808-52.48-10.688-168.864 2.016-187.936 16.48-24.672 140.128 11.552 153.344 37.952 9.76 19.552 2.304 126.752-2.144 181.056 8.832 3.104 17.728 6.432 26.528 9.984 4.512-53.536 13.824-145.76 25.056-156.192 15.936-14.816 122.944 29.408 133.504 60.736 7.008 20.544-17.888 105.504-35.808 161.632 196.8 136.704 280.928 366.432 187.776 539.168zM267.040 439.872c14.272 80.672 70.176 138.24 124.896 128.576 31.040-5.504 54.976-31.52 67.296-67.712 0.544 4 0.992 8 1.728 12.032 17.568 99.072 86.208 169.696 153.344 157.824 67.2-11.872 107.328-101.856 89.856-200.864-17.568-99.072-86.208-169.728-153.344-157.856-40.864 7.264-71.712 43.552-85.664 93.152 0-0.096 0-0.16-0.032-0.224-14.272-80.672-70.208-138.208-124.896-128.576-54.72 9.728-87.488 82.976-73.184 163.648z" />
<glyph unicode="&#xe942;" glyph-name="067" d="M1007.776 582.272c-70.304 255.392-349.248 401.248-623.104 325.856-273.824-75.392-438.784-343.52-368.48-598.88s349.28-401.248 623.136-325.888c273.824 75.424 438.784 343.584 368.448 598.912zM641.6 520.32c38.464-66.112 11.104-153.792-61.152-195.84-72.256-41.984-161.984-22.496-200.512 43.616-38.432 66.080-11.072 153.824 61.184 195.84 72.224 42.048 162.016 22.496 200.48-43.616zM320.352 742.56c24.672 15.456 49.344 19.712 49.344 19.712l42.272-138.112c0 0-7.744-1.408-19.712-9.152-12-7.744-14.112-15.488-14.112-15.488l-88.8 100.768c0 0 6.368 26.784 31.008 42.272zM76.48 539.232c0 0-6.336 99.36 91.616 181.152l194.464-148.672c0 0-43.616-31.072-53.504-93.056l-232.576 60.576zM672.736 137.472l-363.648-38.080v28.992l363.648 47.136v-38.048zM785.536 213.6l-552.576-49.344v33.824l552.608 64.864-0.032-49.344z" />
<glyph unicode="&#xe943;" glyph-name="068" horiz-adv-x="866" d="M323.2 222.656c-252.992 66.24-218.688-63.328-199.648-92.8 23.904-37.024 115.328-73.12 174.208-53.888 71.808 23.424 91.52 129.376 25.44 146.688zM194.432 44.128c-179.872 47.136-155.456-44.992-141.952-65.984 16.928-26.304 81.984-52 123.84-38.24 51.072 16.608 65.088 91.936 18.112 104.224zM865.792 578.432c-6.336 79.36-101.76 71.744-101.76 71.744s116.032 77.824 68.416 167.872c-47.712 90.016-178.016-10.688-178.016-10.688s-6.368 155.648-127.168 152.608c-120.8-3.008-117.632-152.608-117.632-152.608s-73.088 128.192-182.752 64.096c-109.664-64.096-36.544-164.832-36.544-164.832s-139.872 61.088-182.784-79.328c-42.912-140.384 111.296-151.104 111.296-151.104s-66.752-111.392 52.448-170.912c119.2-59.488 185.952 79.328 185.952 79.328s-27.008-109.92 106.496-123.584c133.504-13.76 122.368 111.392 122.368 111.392s82.624-146.528 198.656-51.904c116.032 94.656-23.84 163.296-23.84 167.872-0.032 4.576 111.2 10.72 104.864 90.048zM302.784 538.176c-29.152-31.296-73.536-38.848-99.072-16.928-25.536 21.984-22.592 65.12 6.592 96.448 29.12 31.264 73.504 38.88 99.040 16.896 25.536-21.92 22.624-65.088-6.56-96.416zM503.008 530.048c-33.568-35.968-84.576-44.672-113.984-19.392s-26.016 74.912 7.52 110.912c33.6 36 84.64 44.704 113.984 19.456 29.44-25.28 26.048-74.912-7.52-110.976zM687.328 538.176c-29.12-31.296-73.504-38.848-99.072-16.928-25.536 21.984-22.56 65.12 6.56 96.448 29.152 31.264 73.568 38.88 99.104 16.896 25.536-21.92 22.592-65.088-6.592-96.416z" />
<glyph unicode="&#xe944;" glyph-name="069" horiz-adv-x="931" d="M479.776 581.888c-108.8 29.408-226.432-55.488-262.656-189.696-36.224-134.080 22.656-266.688 131.488-296.064 108.8-29.44 226.4 55.488 262.624 189.664 36.224 134.112-22.56 266.688-131.456 296.096zM417.504 353.44c-23.104-46.816-16.992-98.816 11.776-128.192-27.648-8.992-56.608-8.352-82.24 4.32-60.64 29.92-79.904 114.688-43.104 189.376 36.8 74.752 115.808 111.072 176.416 81.216 31.136-15.328 51.264-45.12 58.592-80.576-43.84 12.928-95.968-14.432-121.44-66.144zM800.192 959.52c-10.88 6.144-750.208-48.896-775.616-79.712-25.376-30.816-32.64-908.384-14.496-931.488 18.144-23.072 699.072-8.128 724.864 0 25.856 8.192 148.608 125.056 155.84 141.376 7.328 16.32 41.248 450.336 39.872 482.016-1.344 31.712-119.552 381.728-130.464 387.808zM669.728 31.712c-23.136-12.672-564.512-17.184-579.904 0s-17.216 753.408 0 772c17.216 18.592 634.24 92.864 645.12 76.128 10.912-16.8-42.176-835.456-65.216-848.128zM275.654 753.696c40.892-16.357 58.973-67.29 40.385-113.761s-66.808-70.884-107.7-54.527c-40.892 16.357-58.973 67.29-40.385 113.761s66.808 70.884 107.7 54.527z" />
<glyph unicode="&#xe945;" glyph-name="070" d="M99.479 413.786c9.056 32.83 38.080 53.463 64.828 46.085s41.090-39.973 32.035-72.803c-9.056-32.83-38.080-53.463-64.828-46.085s-41.090 39.973-32.035 72.803zM1002.464 866.944c-40.032 52.512-928.032-67.552-970.56-107.584s-42.528-700.416 0-735.392c42.528-35.040 900.544 7.488 945.568 44.992 44.992 37.568 65.024 745.44 24.992 797.984zM91.904 684.608c4.992 13.344 120.768 34.176 127.104 24.992 6.304-9.152 12.032-44.192 0-55.008-12.032-10.848-117.088-21.632-127.104-11.648-10.016 9.952-4.992 28.32 0 41.664zM91.872 594.464c4.992 13.344 120.8 34.176 127.104 25.024 6.304-9.184 12.064-44.224 0-55.040-12.032-10.848-117.088-21.632-127.104-11.648s-4.992 28.32 0 41.664zM218.976 103.904c-12.032-10.816-117.088-21.6-127.104-11.616s-4.992 28.352 0 41.696c4.992 13.344 120.8 34.176 127.104 24.992s12.064-44.224 0-55.072zM219.008 194.016c-12.032-10.816-117.088-21.536-127.104-11.616-10.016 9.984-4.992 28.32 0 41.696 4.992 13.312 120.768 34.144 127.104 24.992 6.304-9.184 12.032-44.192 0-55.072zM243.168 374.144c-17.856-64.64-74.912-105.184-127.52-90.688-52.608 14.528-80.768 78.656-62.976 143.264 17.824 64.608 74.912 105.216 127.488 90.656 52.608-14.496 80.8-78.624 63.008-143.232zM909.952 231.552c-37.504-24.96-567.84-65.024-597.856-42.528-30.016 22.528-30.016 472.768 0 510.304s595.328 120.064 620.352 85.024c24.992-34.976 14.976-527.744-22.496-552.8zM347.424 673.28c-26.080-32.608-26.080-423.84 0-443.392 26.048-19.552 486.88 15.264 519.456 36.928 32.64 21.76 41.28 449.952 19.552 480.352-21.76 30.432-512.928-41.28-539.008-73.888z" />
<glyph unicode="&#xe946;" glyph-name="071" d="M384 338.976c-17.056-5.504-54.304-42.784-58.272-54.688-3.968-11.872 18.24-54.688 28.544-57.024 10.304-2.4 85.632 30.912 88 42.784 2.368 11.904-41.248 74.496-58.272 68.928zM539.712 460.224c-15.872-0.736-133.952-90.336-133.152-104.64 0.8-14.208 44.416-70.496 57.056-72.544 12.672-1.984 106.208 118.496 109.376 134.336 3.2 15.936-17.44 43.648-33.28 42.848zM1016.096 893.504c-16.544 22.912-53.696 24.608-84.832 4.576-11.936 6.048-25.76 10.912-42.016 13.92 0 0-592.064-480.288-722.816-573.024 0 0-4.992-10.592-13.312-27.84 148.416-103.936 131.52-182.368 131.52-182.368-41.056 101.216-145.024 154.336-145.056 154.336-37.248-76.704-104.128-210.72-139.584-260.352 0 0-0.064-27.296 33.28-44.64 0 0 227.008 152.8 292.448 165.888 0 0 36.128 35.232 91.808 89.12-30.4-15.584-65.344-30.336-79.904-31.296-25.376-1.6-54.688 59.648-52.32 81.344s232.224 211.168 266.304 208.704c34.016-2.368 45.12-34.048 45.984-57.056 0.352-9.952-20.672-40.16-46.016-72.672 171.328 164.416 387.488 368.832 449.44 414.208 0 0 0.608 16.128-4.768 37.344 26.752 23.328 35.808 57.632 19.84 79.808zM85.216 12.256c0 0-3.84 49.12-50.88 66.272 0 0 79.008 35.744 50.88-66.272z" />
<glyph unicode="&#xe947;" glyph-name="072" horiz-adv-x="957" d="M712.256 948.576c-18.528-9.088-40.8-28.064-65.088-53.504 32.096-114.304 179.168-193.504 244.128-223.488 19.232 19.616 34.976 37.44 45.792 52.256 83.36 114.656-108.96 281.504-224.832 224.736zM371.008 380.576l-203.552-237.12-25.152 19.648-142.304-137.952c0 0 21.824-89.152 105.216-89.152l111.232 169.12-24.672 19.328 206.816 232.128c22.336-17.952 44.448-32.128 54.176-33.632 18.304-2.752 257.12 176.928 398.112 309.216-194.816 109.28-203.712 262.688-203.712 262.912-127.296-133.408-310.24-446.432-310.24-467.808-0.032-10.24 14.816-28.384 34.080-46.688z" />
<glyph unicode="&#xe948;" glyph-name="073" horiz-adv-x="789" d="M482.624 297.152l130.464-177.6 172.608-15.936 3.232 68.512h-137.76zM664.32 601.76c-73.632 137.248-254.016 183.68-403.104 103.776-149.024-79.936-210.144-255.968-136.576-393.184s254.016-183.648 403.072-103.776c0.8 0.48 1.568 0.896 2.368 1.376l-71.904 108.96 121.376-76c110.432 89.152 149.12 238.848 84.768 358.848zM414.528 369.472c-56.352-11.776-110.976 21.536-121.984 74.432-11.072 52.896 25.6 105.312 81.952 117.088 56.32 11.808 110.944-21.536 121.984-74.4 11.040-52.896-25.632-105.344-81.952-117.12zM548.736 181.632c-0.608-0.32-1.088-0.672-1.696-0.928-170.656-91.52-377.344-38.304-461.664 118.816-84.224 157.152-14.176 358.784 156.48 450.304 170.688 91.52 377.376 38.336 461.664-118.848 72.864-135.904 30.272-305.024-92.928-407.456l48.736-30.496 129.152 5.312c3.296 280.8-10.432 714.816-37.696 745.76-39.808 45.248-697.6-16.384-728.384-54.4-30.784-38.048-28.992-931.36 0-945.888 28.992-14.464 721.152-9.024 750.144 18.112 5.888 5.504 10.048 47.008 12.736 110.016l-183.136 28.608-53.408 81.088z" />
<glyph unicode="&#xe949;" glyph-name="074" horiz-adv-x="673" d="M663.584 696.896l-422.592-47.84c0 0-19.936-295.616 29.248-324.8 15.104-8.928 85.44-12.064 160.96-9.248 3.168-48.672 0.256-152.992-77.6-188.448-69.984-31.744-169.184 42.368-169.184 42.368s-155.776 98.688-179.712 27.136c-30.304-90.752 95.072-260.064 95.072-260.064l5.952 1.76c0 0-105.984 178.752-74.784 232.576 13.056 22.624 87.104 1.44 182.24-61.952 84.32-56.192 143.456-35.072 161.952-25.056 17.536 9.568 126.016 74.752 92.032 233.44 79.552 4.864 156.288 16.192 172.544 33.984 55.776 61.152 23.872 346.144 23.872 346.144zM614.4 960l-338.88-39.84v-237.888l354.304 37.536-15.424 240.192zM432.832 805.888l-117.44-10.624v91.328l117.44 16.288v-96.992zM581.696 823.84l-117.472-10.656v91.36l117.472 16.288v-96.992z" />
<glyph unicode="&#xe94a;" glyph-name="075" horiz-adv-x="812" d="M677.472 852.928c-15.52 10.496-168.256-10.56-178.4-17.568-4-2.752-17.824-55.136-32-118.208l-319.936-240.896c-2.88 9.056-6.016 14.944-9.376 15.68-17.504 3.808-130.080-76.992-134.848-89.056-4.768-12.096-2.88-35.616 0-45.824 2.848-10.176 81.088-77.952 91.584-78.88 3.424-0.32 11.712 5.568 21.312 13.696l112.736-223.36c-45.6-13.952-80.928-25.856-83.2-28.384-6.368-7.2-28.928-83.424-19.712-95.2 9.216-11.744 407.712-12.128 415.008 0 7.264 12.128-75.936 165.312-97.44 174.848-8.32 3.648-53.44-6.272-106.144-20.224l-181.856 230.336c4.224 4.544 7.2 8 7.968 9.376 1.984 3.456-0.256 43.584-5.312 81.92l281.216 156.448c-7.936-47.104-11.68-82.624-6.176-85.664 5.952-3.328 52.064-1.76 110.24 2.368 13.024-30.944 53.216-47.648 94.88-37.824 31.744 7.488 55.808 28.448 64.544 52.768 60.032 7.136 106.944 14.912 109.44 20.768 6.976 16.576-118.976 312.32-134.528 322.88zM582.688 878.976c48.96 11.776 87.424 8.896 87.424 8.896s-17.184 57.568-26.048 69.664-139.328-23.52-144.992-35.616c-5.728-12.096 0-68.96 0-68.96s46.144 17.024 83.616 26.016z" />
<glyph unicode="&#xe94b;" glyph-name="076" d="M332.992 575.456c-7.68 17.568-21.184 32.128-39.424 40.288-0.704 0.32-1.44 0.544-2.176 0.832-2.592 13.088-5.632 25.344-10.304 29.184-10.592 8.704-52.16 2.144-61.152-4.64-4.416-3.328-4.032-17.984-3.392-32.96-13.92-9.216-25.664-22.656-33.152-39.456-0.384-0.864-0.704-1.76-1.056-2.656-13.952-1.536-27.68-3.36-30.432-8.096-5.504-9.472 1.44-59.648 7.936-64.768 2.848-2.24 13.76-3.104 25.632-3.68 8-14.816 20.352-27.040 36.448-34.208 2.912-1.312 5.92-2.336 8.928-3.264 2.656-10.976 5.824-21.024 10.112-24 10.24-7.136 45.152-3.648 52.576 3.52 3.68 3.552 4.544 17.376 5.056 31.104 13.568 8.896 25.056 21.856 32.64 37.952 11.36 2.272 22.464 5.152 26.112 9.632 7.872 9.728 5.408 59.232-4.704 63.648-4.032 1.728-11.552 1.76-19.648 1.568zM481.769 599.812c23.399 34.954 67.62 46.384 98.769 25.532s37.433-66.093 14.034-101.046c-23.399-34.954-67.62-46.384-98.769-25.532s-37.433 66.093-14.034 101.046zM878.752 816c-36.736 27.424-146.464 14.176-170.048 0-23.616-14.144-23.616-44.864-35.424-68.512s-236.224-51.968-259.872-47.264c-23.616 4.736-44.896 47.264-59.072 63.776-14.176 16.576-158.080 11.392-191.328-16.544-201.568-169.28-166.144-622.016-149.6-655.104s126.144-56.064 196.864-11.008c69.312 44.128 154.976 265.12 178.624 284.064 23.648 18.88 263.968 57.664 301.728 33.984 37.792-23.616 84.256-215.744 129.152-229.952 44.864-14.144 92.864-21.632 149.6 29.952 103.904 94.56 51.936 510.336-90.624 616.608zM365.472 486.56c-29.152-65.344-101.888-96.384-162.368-69.344-60.544 27.008-85.952 101.92-56.736 167.232 29.184 65.344 101.888 96.416 162.4 69.376s85.888-101.92 56.704-167.264zM612.064 508.416c-31.072-46.4-89.792-61.6-131.168-33.888-41.344 27.68-49.728 87.744-18.656 134.144 31.072 46.368 89.76 61.568 131.136 33.888 41.376-27.712 49.76-87.744 18.688-134.144zM777.184 689.024c4.64 26.592 26.048 45.056 47.936 41.248 21.856-3.776 35.744-28.448 31.136-55.040-4.64-26.56-26.048-45.056-47.936-41.248-21.856 3.84-35.744 28.448-31.136 55.040zM780.64 571.328c-4.64-26.56-26.048-45.056-47.936-41.248-21.824 3.808-35.744 28.448-31.136 55.040s26.080 45.056 47.936 41.248c21.856-3.808 35.776-28.448 31.136-55.040zM865.696 486.24c-4.64-26.56-26.048-45.024-47.936-41.216-21.824 3.776-35.744 28.448-31.136 55.040 4.64 26.56 26.048 45.056 47.904 41.248s35.776-28.448 31.168-55.072zM931.84 590.208c-4.672-26.592-26.080-45.056-47.936-41.248-21.856 3.776-35.776 28.448-31.168 55.040 4.672 26.592 26.080 45.056 47.936 41.248 21.888-3.808 35.776-28.448 31.168-55.040z" />
<glyph unicode="&#xe94c;" glyph-name="077" d="M352.576 573.92c-3.968 1.76-11.456 1.792-19.584 1.6-7.68 17.568-21.184 32.128-39.424 40.288-0.736 0.288-1.472 0.512-2.176 0.832-2.592 13.056-5.632 25.312-10.304 29.152-10.592 8.704-52.16 2.144-61.152-4.64-4.384-3.328-4.032-17.984-3.392-32.96-13.92-9.216-25.664-22.656-33.152-39.456-0.384-0.864-0.704-1.76-1.056-2.656-13.952-1.536-27.68-3.36-30.432-8.096-5.504-9.472 1.408-59.648 7.936-64.768 2.848-2.24 13.76-3.104 25.632-3.68 8-14.816 20.352-27.040 36.448-34.208 2.912-1.312 5.92-2.336 8.928-3.264 2.656-10.976 5.824-21.024 10.112-24 10.24-7.136 45.152-3.616 52.576 3.552 3.68 3.552 4.544 17.376 5.024 31.104 13.568 8.896 25.056 21.856 32.64 37.952 11.36 2.272 22.464 5.152 26.112 9.632 7.84 9.664 5.376 59.168-4.736 63.616zM481.768 599.843c23.399 34.954 67.62 46.384 98.769 25.532s37.433-66.093 14.034-101.046c-23.399-34.954-67.62-46.384-98.769-25.532s-37.433 66.093-14.034 101.046zM635.197 376.348c1.494 34.467 28.184 61.304 59.613 59.941s55.698-30.407 54.204-64.874c-1.494-34.467-28.184-61.304-59.613-59.941s-55.698 30.407-54.204 64.874zM361.66 299.469c-22.080 22.408-20.060 60.202 4.513 84.416s62.393 25.679 84.473 3.271c22.080-22.408 20.060-60.202-4.513-84.416s-62.393-25.679-84.473-3.271zM878.752 816.032c-36.736 27.424-146.464 14.176-170.048 0-23.616-14.144-23.616-44.864-35.424-68.512s-236.224-51.968-259.872-47.264c-23.616 4.736-44.896 47.264-59.072 63.776-14.176 16.608-158.112 11.424-191.36-16.512-201.568-169.312-166.144-622.048-149.6-655.168 16.544-33.024 126.144-56.064 196.864-11.008 41.92 26.688 89.824 118.080 126.368 190.336 34.336-34.432 92.8-32.064 130.816 5.44 32.48 32 39.488 79.2 19.776 113.984 39.2 6.752 83.712 12.448 121.472 14.688-0.352-0.768-0.768-1.536-1.12-2.304-21.216-49.184-2.048-104.768 42.816-124.128 32.224-13.952 68.864-5.248 94.88 18.944 24.128-58.24 49.504-120.896 74.432-128.768 44.864-14.144 92.864-21.664 149.6 29.92 104 94.56 52.032 510.304-90.528 616.576zM777.184 689.056c4.64 26.592 26.048 45.056 47.936 41.248 21.856-3.776 35.744-28.448 31.136-55.040-4.64-26.56-26.048-45.056-47.936-41.248-21.856 3.84-35.744 28.448-31.136 55.040zM203.104 417.248c-60.544 27.040-85.952 101.92-56.736 167.232 29.184 65.344 101.888 96.416 162.4 69.376s85.92-101.92 56.704-167.264c-29.152-65.312-101.856-96.416-162.368-69.344zM455.52 291.712c-31.072-30.624-78.912-32.48-106.816-4.16-27.936 28.352-25.344 76.128 5.728 106.752s78.912 32.48 106.816 4.16c27.936-28.352 25.376-76.128-5.728-106.752zM480.896 474.56c-41.344 27.68-49.728 87.744-18.656 134.144 31.040 46.368 89.76 61.568 131.136 33.888 41.376-27.712 49.76-87.744 18.656-134.144s-89.76-61.6-131.136-33.888zM685.024 292.448c-39.744 1.76-70.432 38.464-68.544 82.048 1.92 43.552 35.648 77.536 75.392 75.776 39.744-1.728 70.432-38.432 68.544-82.016s-35.68-77.536-75.392-75.808zM780.64 571.328c-4.64-26.56-26.048-45.056-47.936-41.248-21.824 3.808-35.744 28.448-31.136 55.040s26.080 45.056 47.936 41.248c21.824-3.808 35.776-28.416 31.136-55.040zM865.696 486.272c-4.64-26.56-26.048-45.024-47.936-41.216-21.824 3.776-35.744 28.448-31.136 55.040 4.672 26.56 26.048 45.056 47.936 41.248 21.824-3.808 35.744-28.448 31.136-55.072zM931.84 590.24c-4.672-26.592-26.080-45.056-47.936-41.248-21.856 3.776-35.776 28.448-31.168 55.040 4.672 26.592 26.080 45.056 47.936 41.248 21.888-3.808 35.776-28.448 31.168-55.040z" />
<glyph unicode="&#xe94d;" glyph-name="078" horiz-adv-x="1004" d="M983.552 770.848l-465.728 144.256c2.432 13.312-0.288 26.112-8.896 34.816-16.48 16.608-47.744 12.288-69.824-9.664-10.24-10.144-16.576-22.304-18.912-34.080l-420.192-232.512 22.88-737.664 980.672 20.032-20 814.816zM421.92 881.856c1.632-4.192 3.808-8.096 7.040-11.328 16.48-16.64 47.744-12.32 69.824 9.632 4.672 4.64 8.352 9.696 11.392 14.944l366.752-134.784-785.056-77.6 330.048 199.136zM441.376-1.6c0.192 1.792 0.448 3.584 0.64 5.792l-0.256 51.36c-3.584 34.368-15.488 73.728-47.936 97.984 38.88 23.872 70.784 64.224 87.296 114.432 95.104 4.192 33.504-136.224 33.504-136.224 97.952 216.256 186.656 0 186.656 0-64.8 208.416 127.52 121.824 127.52 121.824-167.648 98.272 53.28 115.936 53.28 115.936-249.12 10.56-57.984 166.496-57.984 166.496-211.488-109.696-207.616 100.288-207.616 100.288-11.936-194.752-92.896-149.792-136.896-109.824 65.6-75.296 41.984-104.48 1.088-114.752-18.4 50.72-56.32 89.888-106.72 102.752-88.672 22.656-182.272-44.224-209.152-149.408-22.016-86.112 7.648-171.2 67.776-211.584-37.216-23.392-62.208-61.184-78.624-97.408l-20.32-56.576c-0.992-3.712-1.76-6.88-2.592-10.208l-62.304-1.856-25.856 634.752 889.184 85.792 14.304-694.752-504.992-14.816zM527.040 409.568c26.912 60.096 88.736 90.88 138.080 68.736 49.344-22.080 67.52-88.736 40.64-148.832-26.976-60.096-88.768-90.88-138.144-68.704-49.312 22.080-67.52 88.704-40.576 148.8zM690.72 334.754c-22.829-50.95-75.264-77.051-117.117-58.298s-57.276 75.258-34.447 126.208c22.829 50.95 75.264 77.051 117.117 58.298s57.276-75.258 34.447-126.208z" />
<glyph unicode="&#xe94e;" glyph-name="079" d="M0 643.712v-626.592h157.536l-35.808 626.592zM844.928 819.168v-207.904l179.072 27.968v208.544zM844.928 555.968h179.072v-524.544h-179.072v524.544zM505.76 260.736l138.624-21.408 179.104 529.664-132.416 50.176zM440.384 63.68l128.896-46.56 51.392 151.968-131.808 40.736zM142.656 729.536h261.952v150.464l-268.544-21.472zM151.296 560.352h253.312v126.208h-259.776zM179.040 17.12h225.568v516.384h-251.936z" />
<glyph unicode="&#xe94f;" glyph-name="080" horiz-adv-x="753" d="M653.44 669.856c-4.672 3.488-39.328 4.48-90.080 3.392 1.696 108.064-18.4 317.088-203.904 283.040-200.576-36.864-229.312-238.816-232.928-315.296-53.344-7.552-89.888-15.904-94.048-24.384-17.792-35.488-45.664-651.36-25.376-669.152 20.256-17.76 737.6-12.672 745.152 0 7.616 12.64-78.56 707.168-98.816 722.4zM357.568 898.432c130.24 27.968 155.296-124.832 157.856-226.592-99.744-3.68-233.984-12.64-335.68-24.16 8.96 82.496 44.032 222.080 177.824 250.752zM569.536 230.016c-45.824-115.040-169.376-173.856-276.064-131.328s-156.032 170.112-110.208 285.12c45.792 115.008 169.376 173.824 276.064 131.328 106.624-42.464 156-170.080 110.208-285.12zM219.87 368.63c38.733 97.289 143.278 147.037 233.506 111.114s131.973-143.912 93.24-241.201c-38.733-97.289-143.278-147.037-233.506-111.114s-131.973 143.912-93.24 241.201z" />
<glyph unicode="&#xe950;" glyph-name="081" d="M1012.928 640.672c-8.96 9.76-375.552 37.408-415.936-19.392-19.008-26.72-34.432-65.888-68.832-70.336-34.4-4.48-51.616 67.328-95.744 77.824-44.128 10.464-417.472-86.848-427.936-110.784s-0.736-80.736 11.072-88.288c11.808-7.488 56.256 17.984 66.816 9.984 10.56-7.968 97.92-194.784 116.64-210.464 18.688-15.712 230.4 10.496 248.352 35.904 17.952 25.44 46.4 182.56 55.36 199.040 8.992 16.448 46.368 29.92 59.84 5.984s35.904-177.696 60.64-193.408c24.672-15.648 240.864-19.808 271.552 7.872s69.44 246.368 78.4 258.336 43.52 12.48 48.768 24.448c5.28 11.936 0.032 63.552-8.992 73.28zM420.064 310.368c-13.472-24.672-157.12-52.736-186.304-41.568-29.184 11.264-116.704 187.392-99.872 224.48 16.832 36.992 279.424 94.24 304.128 72.896 24.672-21.28-4.512-231.104-17.952-255.808zM866.048 314.752c-7.872-7.872-190.144-14.464-209.248 1.216-19.072 15.712-48.256 238.144-28.064 254.88 20.192 16.672 274.976 23.712 291.808 0 16.832-23.68-46.592-248.224-54.496-256.096z" />
<glyph unicode="&#xe951;" glyph-name="082" d="M378.752 321.984l591.232 470.048c0 0-392.352 90.048-415.456 87.936-23.168-2.144-537.536-425.664-545.248-451.36-7.712-25.728-16.256-228.064 0-252.032 16.288-24.032 325.792-157.792 362.656-156.032 36.832 1.696 632.672 306.016 648.096 327.040 15.392 21.024-18.848 377.856-18.848 377.856l-622.432-403.456zM336.896 621.696c2.4 1.44 16.256 1.408 32.448 0.64 3.2 18.688 7.136 35.552 10.24 36.992 6.912 3.232 9.76 0.736 12.992-5.632 1.28-2.496 0.16-16.576-1.856-32.736 19.136-1.536 36.16-3.648 37.12-5.28 2.048-3.584 0.384-13.92-5.728-16.48-2.496-1.024-17.44-0.768-34.432 0.288-2.944-18.688-6.272-35.264-7.968-36.032-3.776-1.824-13.92 0.672-16 6.944-0.768 2.4 0.352 15.456 2.4 30.88-17.344 1.792-32.352 4.256-33.888 7.040-3.648 6.592-1.472 9.664 4.672 13.376zM193.056 284.704c-31.904-1.984-60 33.248-62.784 78.624-0.512 8.416-0.128 16.576 1.056 24.32l33.536 24.224-73.312 32.16 189.312 152.736c8.096-35.552 46.176-62.176 91.744-61.696 51.168 0.576 92.192 35.104 91.744 77.056-0.416 36.384-31.84 66.336-73.408 73.408l146.816 118.496 186.464-56.608-279.040-214.752 23.136-7.712-222.944-173.152c-3.648-36.768-24.896-65.408-52.32-67.104z" />
<glyph unicode="&#xe952;" glyph-name="083" horiz-adv-x="560" d="M404.992 707.84l-0.704-209.344 155.808-15.776zM185.92 393.984c0 0 31.008-12.864 42.4 0 0 0 11.392 84.672 68.512 137.312v356.736c0 0-21.184 76.672-99.488 71.744-78.272-4.864-84.8-75.040-84.8-75.040s0.736-10.24 1.696-28.16c37.792-10.528 99.008-17.504 166.272 15.168 0 0-60.672-66.304-164.8-45.728 2.784-66.24 5.248-179.84-3.2-294.72 0 0 58.72-49.088 73.408-137.312zM372.288 707.84h-50.4v-193.984c-72.48-58.336-74.912-148.384-74.912-148.384-14.496-14.208-76.992 3.104-76.992 3.104-18.624 97.792-82.080 145.312-82.080 145.312 5.664 67.648 7.424 134.816 7.328 193.984h-95.232c0 0 20.576-385.92 0-753.664 0 0 358.304-24.704 541.536-16.544l13.632 511.168-194.944-3.040 12.064 262.048zM467.68 27.808l-388-8.256v41.056l388 32.832v-65.632zM467.68 126.336l-388-8.224v49.248l388 32.832v-73.856zM467.68 298.784v-65.696l-388-8.224v41.056l388 32.864z" />
<glyph unicode="&#xe953;" glyph-name="084" horiz-adv-x="715" d="M712.288 960l-550.592-91.2 28.224-632.16c-11.104 3.104-56.16 54.56-68 53.984-66.944-3.296-121.92-64.992-121.92-168.064s68.192-186.56 152.352-186.56 152.384 83.488 152.384 186.56c0 4.256-0.32 8.384-0.544 12.576h0.16l-10.016 495.264 298.464 45.632 13.056-443.392c-12.672 4.256-68.192 56.448-81.984 56-49.376-1.44-113.504-63.008-113.504-166.016s68.224-186.56 152.384-186.56 152.352 83.52 152.352 186.56c0.032 12.288-2.816 837.376-2.816 837.376z" />
<glyph unicode="&#xe954;" glyph-name="085" horiz-adv-x="838" d="M690.176 758.944c-78.208 46.176-136.672 114.208-136.672 114.208-184.512 184.544-307.488 17.6-307.488 17.6l-7.808-632.64c-11.68 2.976-91.648 138.368-104 137.6-71.712-4.8-134.208-96.032-134.208-225.472 0-129.376 82.624-234.24 184.544-234.24 101.888 0 184.512 104.864 184.512 234.24 0 14.016-1.152 27.68-3.008 40.992h0.128l-32.928 612.512c210.176-409.632 504.416-170.208 504.416-132.16-0.032 16.832-85.6 30.88-147.488 67.36z" />
<glyph unicode="&#xe955;" glyph-name="086" horiz-adv-x="947" d="M542.72 523.968l23.296 436.032-159.776-23.328 23.328-412.704zM921.056 546.272c-50.56 135.296-166.976 228.48-305.248 261.888l-11.744-123.488c87.52-26.784 160.128-88.96 192.832-176.608 58.784-157.152-32.704-336.64-204.416-400.736s-358.432 11.232-417.152 168.416c-57.44 153.696 28.864 328.576 193.184 396.224l-12.928 128.64c-11.84-3.488-23.68-7.328-35.424-11.68-247.328-92.448-379.168-350.912-294.528-577.376 84.64-226.4 353.696-335.072 600.992-242.624 247.264 92.48 379.104 350.944 294.432 577.344z" />
<glyph unicode="&#xe956;" glyph-name="087" horiz-adv-x="922" d="M694.016 332.576l-0.192-0.192c78.88 118.016 87.072 281.344 7.712 420.16-108.96 190.912-342.048 263.104-520.416 161.28-178.336-101.888-234.528-339.264-125.504-530.272 109.056-190.944 342.048-263.136 520.448-161.248 0 0 216.512-286.304 228.384-286.304 11.84 0 116.608 133.824 117.184 143.2 0.608 9.376-227.616 253.376-227.616 253.376zM534.528 315.616c-134.208-76.672-309.568-22.304-391.584 121.376-82.080 143.68-39.776 322.304 94.4 398.976 134.208 76.672 309.568 22.304 391.584-121.376 82.080-143.68 39.808-322.304-94.4-398.976zM457.312 642.208c0 0 11.36 92.576 6.592 102.752-4.832 10.144-93.568-2.24-107.392-9.952s-23.424-103.872-23.424-103.872-90.592-10.368-97.376-19.712c-6.784-9.312-13.568-82.464-7.040-93.312s91.328-10.048 91.328-10.048-0.576-78.112 7.296-89.408 91.52 4 99.648 7.744c8.128 3.712 23.616 91.808 23.616 91.808s70.56 2.144 85.056 10.144c14.496 7.968 33.536 93.792 24.64 104.672-8.896 10.816-102.944 9.184-102.944 9.184z" />
<glyph unicode="&#xe957;" glyph-name="088" horiz-adv-x="922" d="M694.016 332.576l-0.192-0.192c78.88 118.016 87.072 281.344 7.712 420.16-108.96 190.912-342.048 263.104-520.416 161.28-178.336-101.888-234.528-339.264-125.504-530.272 109.056-190.944 342.048-263.136 520.448-161.248 0 0 216.512-286.304 228.384-286.304 11.84 0 116.608 133.824 117.184 143.2 0.608 9.376-227.616 253.376-227.616 253.376zM534.528 315.616c-134.208-76.672-309.568-22.304-391.584 121.376-82.080 143.68-39.776 322.304 94.4 398.976 134.208 76.672 309.568 22.304 391.584-121.376 82.080-143.68 39.808-322.304-94.4-398.976zM560.256 632.992c-8.896 10.848-105.856 4.288-105.856 4.288l-121.344-6.112c0 0-90.88-3.808-97.664-13.152-6.784-9.312-13.28-89.024-6.752-99.872s91.36-10.080 91.36-10.080l134.4 5.12c0 0 68.512 1.824 83.008 9.824 14.496 7.968 31.744 99.136 22.848 109.984z" />
<glyph unicode="&#xe958;" glyph-name="089" d="M99.424 944c0 0-312-642.272 169.376-655.328l-19.744-202.784c-78.624-7.456-136.48-32.48-136.48-62.112 0-35.616 83.136-64.544 185.728-64.544 102.56 0 185.696 28.864 185.696 64.544 0 30.4-60.736 55.84-142.336 62.688v204.512c116.896 16 352.928 112.416 144.832 653.024h-387.072zM290.112 361.088c-392.544 0-157.312 521.472-157.312 521.472l324.736 1.76c196.576-537.12-167.424-523.232-167.424-523.232zM1001.696 933.472h-43.328c62.4-289.12-37.856-370.176-98.912-392.928l5.312 391.232h-48.832l-18.816-399.040c-196.416 20.48-81.984 338.496-57.664 400.736h-50.176c0 0-177.888-463.552 104.672-466.976l-23.936-507.296h81.44l7.040 512.64c81.44 19.264 219.68 103.456 143.2 461.632z" />
<glyph unicode="&#xe959;" glyph-name="090" d="M106.656 612.16c-181.92-127.392-75.968-360-75.968-360 31.52-8.544 65.312-15.488 100.672-21.024 0 0.064-36.352 246.048-24.704 381.024zM939.616 585.408c-7.264-152.896-54.944-343.808-54.944-343.872 49.984 6.016 79.872 10.624 79.872 10.624s149.088 202.4-24.928 333.248zM277.632-11.168c23.392-21.024 472.8-44.608 497.376-23.456 16.672 14.208 10.752 134.816 5.216 211.328l-506.592 11.040c-5.472-65.472-12.832-183.744 4-198.912zM890.336 710.88c-5.472 14.816-19.456 26.208-39.968 34.752-5.76-105.888-15.328-207.872-15.328-207.872h-588.416c0 0-6.304 80.8-9.408 165.088-33.632-9.76-57.376-19.168-66.272-27.008-54.272-47.808-1.664-432.608-0.096-444.16l1.632-6.304c46.080-7.296 53.76-6.368 103.616-9.504 0 0 410.848 3.424 499.776 13.952 42.048 4.032 44.864 4.16 74.624 7.744l2.432 3.616c0 0 81.888 348.032 37.408 469.696zM789.024 936.768c-24.576 31.616-480.992-49.152-502.048-73.696s0-294.912 0-294.912h495.040c0 0 31.584 337.024 7.008 368.608zM752.16 644.224l-440-36v26.688l440 45.312v-36zM752.16 708.224l-440-36v26.688l440 45.312v-36zM752.16 772.224l-440-36v26.688l440 45.312v-36zM752.16 836.224l-440-36v26.688l440 45.312v-36z" />
<glyph unicode="&#xe95a;" glyph-name="091" horiz-adv-x="509" d="M287.552 635.776c-2.4 220.48 220.96 93.44 220.96 93.44l-5.248 172.576c-197.696 107.808-290.496 50.688-357.088-47.936-61.056-90.496-40.256-239.616-40.256-239.616l2.368-75.808-108.288-5.728v-119.84h112.32l15.168-476.864h179.296c0 0-8.672 258.848-14.496 476.864h211.040v146.176l-214.24-11.2c-0.704 33.312-1.248 63.232-1.536 87.936z" />
<glyph unicode="&#xe95b;" glyph-name="092" horiz-adv-x="1025" d="M941.648 925.567c-77.387 73.703-847.509 17.873-910.162-62.621-62.621-80.526-22.101-843.857 36.836-888.060 58.969-44.235 862.275-58.969 924.928 0s25.785 876.978-51.602 950.681zM616.693 498.721l164.704 8.648v-112.429h-162.237c4.452-167.586 11.147-366.595 11.147-366.595h-137.83l-11.659 366.595h-86.356v92.121l83.313 4.388-1.858 58.264c0 0-16.016 114.671 30.942 184.242 51.218 75.817 122.487 119.732 274.506 36.836l4.068-132.673c0 0-171.718 97.663-169.925-71.846 0.288-18.962 0.641-41.961 1.185-67.553z" />
<glyph unicode="&#xe95c;" glyph-name="093" d="M987.552 640.672c-104.544 261.888-402.272 387.968-664.928 281.536-262.624-106.432-390.752-405.024-286.176-666.88 104.576-261.92 402.24-387.936 664.864-281.504 262.656 106.368 390.816 404.96 286.24 666.848zM534.752 513.696l140.032 7.392v-96.224h-137.92c3.744-143.584 9.44-314.016 9.44-314.016h-117.184l-9.888 314.016h-73.44v78.88l70.784 3.744-1.536 49.92c0 0-13.632 98.176 26.304 157.792 43.488 64.96 104.16 102.56 233.408 31.584l3.36-113.632c0 0-145.984 83.616-144.384-61.536 0.288-16.288 0.512-36 1.024-57.92z" />
<glyph unicode="&#xe95d;" glyph-name="094" d="M1022.304 740.8c-21.984 13.44-164.032 47.104-164.192 47.136-8.48 56-38.816 156.064-147.712 156.064-128.672 0-142.624-78.304-181.792-159.392-35.264-73.056-254.88-225.344-528.608-201.376 0 0 83.36-211.712 256.512-293.856-0.128 93.984 75.168 180.672 182.784 202.592 109.088 22.176 213.632-30.016 248.768-118.752 95.456 79.744 138.496 178.144 157.888 254.592l-0.064-0.8c0-0.032 198.432 100.32 176.416 113.792zM768.064 740.736c-12.864-38.752-49.504-61.44-81.696-50.688-32.288 10.752-47.936 50.848-35.072 89.6 12.928 38.752 49.536 61.44 81.824 50.688 32.224-10.752 47.904-50.88 34.944-89.6zM676.576 363.712c-43.2 73.888-138.4 114.784-237.28 94.688-95.168-19.328-164.96-89.44-179.808-170.4 37.12-17.184 78.368-28.32 123.712-30.208l23.328-213.408-74.592-29.888v-18.624l74.592 14.944 39.168-61.568 22.368 16.768-22.368 42.88 61.536-11.2 7.456 26.080-70.88 14.944-37.664 218.752c30.016 0.8 61.76 5.76 95.2 15.488l40.896-130.048-67.328-43.712 3.616-18.272 70.24 29.12 50.368-52.704 18.688 20.8-30.272 37.76 62.528 0.96 2.176 27.104-72.384 0.768-52.512 136.704c6.848 2.496 13.824 5.184 20.736 8.064 50.592 20.96 92.928 46.272 128.48 74.208z" />
<glyph unicode="&#xe95e;" glyph-name="095" horiz-adv-x="1025" d="M637.588 658.332c10.174 30.548 39.036 48.446 64.464 39.977s37.795-40.098 27.621-70.646c-10.174-30.548-39.036-48.446-64.464-39.977s-37.795 40.098-27.621 70.646zM941.648 925.567c-77.387 73.703-847.509 17.873-910.162-62.621-62.621-80.526-22.101-843.857 36.836-888.060 58.969-44.235 862.275-58.969 924.928 0s25.785 876.978-51.602 950.681zM581.235 157.655l57.047-0.673-1.762-21.333-49.296-0.737 23.863-29.789-14.734-16.432-39.718 41.576-55.382-22.966-2.851 14.414 53.107 34.497-32.287 102.531c-26.33-7.655-51.378-11.531-75.049-12.204l29.693-172.551 55.894-11.755-5.894-20.596-48.559 8.809 17.681-33.857-17.681-13.229-30.878 48.527-58.809-11.723v14.702l58.809 23.479-18.354 168.291c-35.747 1.57-68.29 10.282-97.567 23.831 11.691 63.838 66.753 119.123 141.801 134.338 77.964 15.855 153.044-16.4 187.093-74.664-28.027-22.037-61.436-42.025-101.218-58.425-5.509-2.306-11.019-4.42-16.4-6.374l41.448-107.688zM790.942 537.895l0.064 0.641c-15.311-60.25-49.168-137.862-124.505-200.77-27.707 70.020-110.123 111.18-196.19 93.691-84.85-17.265-144.236-85.683-144.14-159.771-136.516 64.767-202.244 231.712-202.244 231.712 215.825-18.898 389.049 101.186 416.852 158.778 30.878 63.934 41.897 125.722 143.371 125.722 85.875 0 109.834-78.924 116.497-123.095 0.128 0 112.141-26.554 129.469-37.156s-139.175-89.751-139.175-89.751z" />
<glyph unicode="&#xe95f;" glyph-name="096" d="M987.552 640.704c-104.544 261.856-402.272 387.968-664.928 281.504-262.624-106.4-390.752-405.024-286.208-666.88 104.608-261.952 402.272-387.936 664.896-281.568 262.656 106.432 390.816 405.056 286.24 666.944zM557.696 211.168l48.736-0.608-1.568-18.304-42.048-0.672 20.448-25.632-12.64-14.080-33.952 35.744-47.296-19.744-2.4 12.448 45.312 29.664-27.52 88.192c-22.496-6.688-43.84-9.984-64.064-10.496l25.376-148.288 47.648-10.112-4.992-17.728-41.408 7.552 15.072-28.992-15.072-11.392-26.336 41.728-50.176-10.144v12.576l50.176 20.224-15.68 144.672c-30.528 1.312-58.272 8.864-83.264 20.512 9.984 54.88 56.928 102.368 120.992 115.488 66.496 13.568 130.624-14.080 159.648-64.256-23.936-18.88-52.416-36.064-86.4-50.176-4.672-1.984-9.344-3.808-13.984-5.504l35.392-92.672zM736.672 538.016v0.576c-12.96-51.808-41.952-118.528-106.144-172.64-23.68 60.192-94.016 95.552-167.392 80.544-72.448-14.816-123.104-73.6-123.008-137.312-116.512 55.68-172.608 199.2-172.608 199.2 184.192-16.32 331.968 86.944 355.68 136.512 26.336 54.976 35.744 108.032 122.336 108.032 73.216 0 93.728-67.872 99.328-105.792 0.16-0.064 95.68-22.848 110.496-31.968 14.752-9.12-118.688-77.152-118.688-77.152zM660.8 675.84c-21.76 7.328-46.304-8.064-55.072-34.368-8.672-26.24 1.888-53.376 23.552-60.672s46.304 8.128 54.976 34.304c8.768 26.24-1.76 53.44-23.456 60.736z" />
<glyph unicode="&#xe960;" glyph-name="097" d="M985.185 286.549c-77.434-140.19-238.641-199.485-359.96-132.437-52.419 28.965-88.747 76.849-106.984 133.12-91.429-135.607-257.122-189.294-383.902-119.223-135.314 74.752-175.006 262.095-88.649 418.426s266.045 222.452 401.359 147.7c63.683-35.206 106.155-95.281 124.294-165.4 83.675 111.275 225.036 153.356 334.263 92.989 121.417-66.95 157.013-234.984 79.579-375.174z" />
<glyph unicode="&#xe961;" glyph-name="098" horiz-adv-x="1025" d="M941.648 925.599c-77.387 73.703-847.509 17.873-910.162-62.621-62.621-80.526-22.101-843.857 36.836-888.060 58.969-44.235 862.275-59.001 924.928 0 62.653 58.969 25.785 876.978-51.602 950.681zM828.226 343.467c-50.865-92.089-156.76-131.039-236.421-86.996-34.465 19.026-58.296 50.449-70.276 87.413-60.058-89.078-168.9-124.312-252.18-78.252-88.886 49.104-114.959 172.135-58.232 274.826s174.761 146.126 263.647 97.022c41.833-23.126 69.732-62.589 81.647-108.649 54.965 73.095 147.823 100.738 219.573 61.083 79.789-44.011 103.108-154.358 52.243-246.447z" />
<glyph unicode="&#xe962;" glyph-name="099" d="M1018.112 527.328c-42.336 279.296-303.328 470.24-582.88 426.432-279.52-43.808-471.776-305.728-429.376-585.088 42.4-279.328 303.36-470.208 582.88-426.432 279.552 43.808 471.84 305.76 429.376 585.088zM832.096 346.912c-50.816-93.472-156.608-132.96-236.224-88.32-34.4 19.328-58.24 51.296-70.208 88.768-60-90.432-168.736-126.176-251.936-79.456-88.8 49.856-114.848 174.72-58.176 278.976s174.592 148.352 263.392 98.496c41.792-23.456 69.696-63.52 81.568-110.272 54.944 74.208 147.712 102.24 219.392 62.016 79.648-44.704 103.008-156.736 52.192-250.208z" />
<glyph unicode="&#xe963;" glyph-name="100" d="M616 566.112c150.176 59.36 233.152 187.008 276.288 283.264-100.8 89.984-254.528 115.424-406.496 77.888 68.096-119.168 108.448-242.272 130.208-361.152zM970.592 744.384c-6.688 14.176-14.496 27.328-22.752 40.064-77.216-164.288-194.752-249.408-321.024-288.384 6.944-54.88 10.112-108.416 10.656-159.808 112.608-28.192 194.176-109.568 248.864-188.928 43.584 49.568 63.712 88.768 63.712 88.768s151.712 229.536 20.544 508.288zM635.68 246.848c-5.504-110.688-22.272-207.328-39.008-280.128 100.864 26.816 177.984 75.936 234.016 125.12-42.368 64.384-105.76 130.752-195.008 155.008zM538.24 543.264c-30.816 165.952-89.92 288-131.584 358.368-126.304-50.272-244.256-145.312-321.216-284.256 188.704-82.784 336.96-97.568 452.8-74.112zM552.576 346.784c1.984 0 3.872-0.192 5.824-0.224-1.024 46.016-4.512 89.856-9.888 131.264-202.208-33.728-409.792 30.24-499.36 63.616-121.28-298.304 5.632-450.624 125.92-524.576 45.28 115.52 158.784 329.92 377.504 329.92zM557.216 256.384c-169.632-3.68-268.096-172.672-312.384-275.232 49.312-20.704 86.336-27.872 86.336-27.872 64.512-8.96 123.2-9.088 176.672-3.168 29.792 109.728 44.832 212.032 49.376 306.272z" />
<glyph unicode="&#xe964;" glyph-name="101" horiz-adv-x="1025" d="M941.648 925.599c-77.387 73.703-847.509 17.873-910.162-62.621-62.621-80.526-22.101-843.857 36.836-888.060 58.969-44.235 862.275-59.001 924.928 0 62.621 58.969 25.785 876.978-51.602 950.681zM432.419 795.072c31.711-53.524 76.586-146.254 100.001-272.392-88.021-17.809-200.706-6.598-344.109 56.343 58.489 105.574 148.111 177.804 244.108 216.049zM509.325 71.94c-40.647-4.58-85.235-4.452-134.242 2.37 0 0-28.155 5.381-65.632 21.173 33.633 77.931 108.457 206.312 237.414 209.131-3.459-71.557-14.926-149.297-37.54-232.673zM543.278 373.384c-166.177 0-252.437-162.91-286.902-250.739-91.417 56.15-187.83 171.975-95.677 398.658 68.098-25.369 225.851-73.992 379.536-48.399 4.068-31.422 6.694-64.735 7.463-99.713-1.473 0.064-2.915 0.192-4.42 0.192zM492.541 814.483c115.472 28.572 232.321 9.193 308.939-59.193-32.736-73.127-95.837-170.085-209.995-215.281-16.496 90.392-47.182 183.954-98.944 274.474zM576.847 84.528c12.684 55.318 25.401 128.797 29.629 212.878 67.81-18.386 115.984-68.803 148.208-117.81-42.569-37.316-101.186-74.664-177.836-95.068zM845.459 289.302c0 0-15.343-29.853-48.495-67.457-41.576 60.314-103.524 122.134-189.111 143.595-0.416 39.078-2.819 79.693-8.136 121.462 95.965 29.565 185.3 94.299 243.98 219.124 6.278-9.673 12.204-19.635 17.297-30.462 99.681-211.885-15.535-386.262-15.535-386.262z" />
<glyph unicode="&#xe965;" glyph-name="102" d="M1018.112 527.328c-42.336 279.296-303.328 470.24-582.88 426.432-279.52-43.808-471.776-305.728-429.376-585.088 42.4-279.328 303.36-470.208 582.88-426.432 279.552 43.808 471.84 305.76 429.376 585.088zM800.736 759.872c-32.736-74.208-95.744-172.64-209.824-218.496-16.512 91.712-47.168 186.688-98.848 278.592 115.36 28.96 232.128 9.344 308.672-60.096zM432 800.256c31.68-54.336 76.512-148.48 99.904-276.512-87.936-18.048-200.512-6.688-343.776 57.184 58.464 107.2 148 180.512 243.872 219.328zM508.832 66.24c-40.608-4.64-85.152-4.512-134.112 2.368 0 0-28.128 5.504-65.568 21.568 33.6 79.104 108.352 209.44 237.184 212.32-3.424-72.672-14.912-151.616-37.504-236.256zM542.784 372.192c-166.016 0-252.192-165.376-286.624-254.496-91.328 57.056-187.68 174.528-95.616 404.672 68.032-25.76 225.632-75.104 379.168-49.12 4.064-31.904 6.688-65.696 7.456-101.216-1.472 0.064-2.88 0.16-4.384 0.16zM576.32 79.072c12.672 56.128 25.376 130.688 29.568 216.064 67.776-18.688 115.936-69.92 148.128-119.552-42.592-37.984-101.152-75.872-177.696-96.512zM844.64 286.816c0 0-15.328-30.24-48.448-68.48-41.536 61.216-103.424 124.032-188.928 145.792-0.416 39.648-2.816 80.928-8.128 123.296 95.872 30.016 185.12 95.712 243.744 222.4 6.272-9.824 12.192-19.936 17.28-30.944 99.616-215.008-15.52-392.064-15.52-392.064z" />
<glyph unicode="&#xe966;" glyph-name="103" horiz-adv-x="959" d="M956.512 760.064c-9.12 11.2-106.080 9.536-106.080 9.536s11.712 95.392 6.816 105.92c-4.992 10.464-96.512-2.304-110.752-10.24s-24.192-107.104-24.192-107.104-93.376-10.688-100.384-20.32c-7.008-9.6-14.016-84.992-7.264-96.192s94.144-10.368 94.144-10.368-0.608-80.544 7.456-92.16c8.096-11.648 94.368 4.096 102.752 7.968 8.384 3.84 24.384 94.656 24.384 94.656s72.736 2.208 87.68 10.464c15.008 8.224 34.624 96.672 25.44 107.84zM396.096 946.976c-55.424-24.896-86.848-78.336-77.184-125.92-39.488 1.472-81.472-6.304-121.952-24.48-118.496-53.216-179.168-175.264-135.424-272.576 5.92-13.184 13.472-25.216 22.336-36.064-54.624-60.096-74.56-139.488-44.256-207.072 2.432-5.376 5.152-10.624 8.128-15.616-47.552-64.448-62.336-143.328-31.712-211.36 49.28-109.792 197.632-150.048 331.328-90.016 133.696 60.064 202.048 197.728 152.8 307.456-49.344 109.792-197.664 150.048-331.328 89.984-12.8-5.76-25.024-12.224-36.64-19.328 0.096 0 0.192 0.064 0.256 0.128-6.848 31.296 3.776 65.12 27.2 92.32 57.152-22.016 128.48-20.448 195.616 9.76 118.496 53.248 179.168 175.264 135.424 272.576-6.432 14.368-14.816 27.36-24.736 38.944 4.608 1.568 9.152 3.328 13.728 5.376 62.528 28.064 94.528 92.48 71.456 143.808-23.104 51.296-92.48 70.176-155.040 42.080zM209.76 270.112c72.352 32.544 152.64 10.688 179.328-48.704s-10.336-133.92-82.688-166.4c-72.384-32.512-152.672-10.688-179.328 48.704s10.304 133.952 82.688 166.4zM318.912 525.024c-64.128-28.8-135.328-9.472-158.976 43.2s9.152 118.72 73.312 147.52c64.16 28.8 135.328 9.472 158.976-43.232 23.68-52.64-9.152-118.688-73.312-147.488z" />
</font>
</defs>
</svg>
