<?xml version="1.0" standalone="no"?>
<!DOCTYPE svg PUBLIC "-//W3C//DTD SVG 1.1//EN" "http://www.w3.org/Graphics/SVG/1.1/DTD/svg11.dtd">
<svg xmlns="http://www.w3.org/2000/svg">
<metadata>Generated by Fontastic.me</metadata>
<defs>
<font id="steadysets" horiz-adv-x="512">
<font-face font-family="steadysets" units-per-em="512" ascent="480" descent="-32"/>
<missing-glyph horiz-adv-x="512" />

<glyph glyph-name="align-center" unicode="&#97;" d="M64 469l0-448 363 0 0 448z m320-405l-277 0 0 363 277 0z m-85 299l-128 0 0-43 128 0z m42-64l-192 0 0-22 192 0z m0-43l-192 0 0-21 192 0z m0-43l-192 0 0-21 192 0z m-128-64l64 0 0 22-64 0z"/>
<glyph glyph-name="align-justify" unicode="&#98;" d="M64 469l0-448 363 0 0 448z m320-405l-277 0 0 363 277 0z m-43 299l-192 0 0-43 192 0z m0-64l-192 0 0-22 192 0z m0-43l-192 0 0-21 192 0z m0-43l-192 0 0-21 192 0z m0-42l-192 0 0-22 192 0z"/>
<glyph glyph-name="align-left" unicode="&#99;" d="M64 469l0-448 363 0 0 448z m320-405l-277 0 0 363 277 0z m-107 299l-128 0 0-43 128 0z m64-64l-192 0 0-22 192 0z m0-43l-192 0 0-21 192 0z m0-43l-192 0 0-21 192 0z m-128-42l-64 0 0-22 64 0z"/>
<glyph glyph-name="align-right" unicode="&#100;" d="M64 469l0-448 363 0 0 448z m320-405l-277 0 0 363 277 0z m-43 299l-128 0 0-43 128 0z m0-64l-192 0 0-22 192 0z m0-43l-192 0 0-21 192 0z m0-43l-192 0 0-21 192 0z m-64-64l64 0 0 22-64 0z"/>
<glyph glyph-name="archive" unicode="&#101;" d="M448 277l0 150-64 0 0 64-341 0 0-214-22 0 0-42 22 0 0-235 426 0 0 235 22 0 0 42z m-43 107l0-107-256 0 0 107z m-320 64l256 0 0-21-234 0 0-150-22 0z m342-405l-342 0 0 192 342 0z m-43 170l-256 0 0-149 256 0z m-21-128l-214 0 0 107 214 0z m-22 86l-170 0 0-22 170 0z m-64-43l-106 0 0-21 106 0z"/>
<glyph glyph-name="arrow-down" unicode="&#102;" d="M213 384l0-192-96 0 139-139 139 139-96 0 0 193c0 23-19 42-43 42-24 0-43-20-43-43z"/>
<glyph glyph-name="arrow-left" unicode="&#103;" d="M384 299l-192 0 0 96-139-139 139-139 0 96 193 0c23 0 42 19 42 43 0 24-20 43-43 43z"/>
<glyph glyph-name="arrow-right" unicode="&#104;" d="M107 213l192 0 0-96 138 139-138 139 0-96-193 0c-23 0-42-19-42-43 0-24 20-43 43-43z"/>
<glyph glyph-name="arrow-up" unicode="&#105;" d="M299 107l0 192 96 0-139 138-139-138 96 0 0-193c0-23 19-42 43-42 24 0 43 20 43 43z"/>
<glyph glyph-name="atom" unicode="&#106;" d="M256 320c-35 0-64-29-64-64 0-35 29-64 64-64 35 0 64 29 64 64 0 35-29 64-64 64z m197-8c-7 2-13 6-19 11-8-16-19-32-30-49-18 23-38 46-61 69-23 22-46 43-69 61 55 39 108 62 145 62 16 0 27-4 35-12 9-8 12-22 12-38 1 0 2 0 3 0 6 0 12-1 18-3 1 24-5 43-18 56-12 12-28 18-50 18-43 0-102-26-163-70-61 44-120 70-163 70-5 0-9 0-13-1 6-5 10-12 13-20 37 0 90-23 145-62-23-18-46-39-69-61-22-23-43-46-61-69-18 26-33 51-44 76-7 16-12 32-15 45-2 0-4 0-6 0-6 0-11 1-16 2 3-17 9-35 18-56 12-27 29-56 50-85-21-29-38-58-50-85-26-58-27-104-2-128 12-12 28-18 50-18 64 0 162 56 250 144 22 23 43 46 61 69 59-83 76-154 50-180-8-8-19-12-35-12-20 0-44 7-71 19-3-7-7-13-12-18 31-14 59-22 83-22 22 0 38 6 50 18 37 37 14 122-52 213 14 19 26 38 36 56z m-360-266c-16 0-27 4-35 12-18 17-15 55 6 104 11 25 26 50 44 76 18-23 39-47 61-69 23-23 46-43 69-61-55-39-108-62-145-62z m235 138c-23-23-48-44-72-63-24 19-48 40-72 63-23 24-44 48-63 72 19 24 40 48 63 72 24 23 48 44 72 63 24-19 48-40 72-63 24-24 45-48 63-72-19-24-40-48-63-72z m141 200c-11 0-21-10-21-21 0-12 10-22 21-22 12 0 22 10 22 22 0 11-10 21-22 21z m-170-277c-12 0-22-10-22-22 0-11 10-21 22-21 11 0 21 10 21 21 0 12-10 22-21 22z m-256 320c11 0 21 9 21 21 0 12-10 21-21 21-12 0-22-9-22-21 0-12 10-21 22-21z"/>
<glyph glyph-name="bag" unicode="&#107;" d="M384 363l0 64-64 64-128 0-64-64 0-64-64 0 0-363 384 0 0 363z m-192 85l128 0 21-21-170 0z m149-43l0-42-21 0 0 42z m-42 0l0-42-86 0 0 42z m-128 0l21 0 0-42-21 0z m234-362l-298 0 0 277 298 0z"/>
<glyph glyph-name="bank-notes" unicode="&#108;" d="M427 341l0 64-427 0 0-256 64 0 0-64 427 0 0 256z m-363-149l-21 0 0 171 341 0 0-22-320 0z m384-64l-341 0 0 171 341 0z m-320 149l0-128 299 0 0 128z m21-106l0 85 70 0c-3-6-6-14-6-21l0-43c0-8 3-15 6-21z m171 32c0-18-14-32-32-32l-21 0c-18 0-32 14-32 32l0 21c0 18 14 32 32 32l21 0c18 0 32-14 32-32z m85-32l-70 0c4 6 6 13 6 21l0 43c0 7-2 15-6 21l70 0z"/>
<glyph glyph-name="barbell" unicode="&#109;" d="M464 320c-11 0-16-19-16-43l0-42c0-24 5-43 16-43 12 0 17 19 17 43l31 0 0 42-31 0c0 24-5 43-17 43z m-80 64c-21 0-21-19-21-43l0-64-214 0 0 64c0 24 0 43-21 43-23 0-43-19-43-43l0-170c0-24 20-43 43-43 21 0 21 19 21 43l0 64 214 0 0-64c0-24 0-43 21-43 23 0 43 19 43 43l0 170c0 24-20 43-43 43z m-336-64c11 0 16-19 16-43l0-42c0-24-5-43-16-43-12 0-17 19-17 43l-31 0 0 42 31 0c0 24 5 43 17 43z"/>
<glyph glyph-name="bars" unicode="&#110;" d="M491 43l0 21-22 0 0-21-21 0 0 213-107 0 0-213-21 0 0 426-107 0 0-426-21 0 0 256-21 0 0 21-22 0 0-21-42 0 0 21-22 0 0-277-42 0 0 469-43 0 0-512 512 0 0 43z m-342 0l-21 0 0 213 21 0z m128 0l-21 0 0 384 21 0z m128 0l-21 0 0 170 21 0z m-320 469l22 0 0-21-22 0z m64 0l22 0 0-21-22 0z m64 0l22 0 0-21-22 0z m64 0l22 0 0-21-22 0z m64 0l22 0 0-21-22 0z m64 0l22 0 0-21-22 0z m64 0l22 0 0-21-22 0z m0-64l22 0 0-21-22 0z m-64 0l22 0 0-21-22 0z m-64 0l22 0 0-21-22 0z m0-64l22 0 0-21-22 0z m64 0l22 0 0-21-22 0z m64 0l22 0 0-21-22 0z m0-64l22 0 0-21-22 0z m-64 0l22 0 0-21-22 0z m-64 0l22 0 0-21-22 0z m128-64l22 0 0-21-22 0z m0-64l22 0 0-21-22 0z m0-64l22 0 0-21-22 0z m-320 320l22 0 0-21-22 0z m0-64l22 0 0-21-22 0z m-64 0l22 0 0-21-22 0z m0 64l22 0 0-21-22 0z"/>
<glyph glyph-name="battery-0" unicode="&#111;" d="M444 341c-9 25-32 43-60 43l-320 0c-35 0-64-29-64-64l0-149c0-36 29-64 64-64l320 0c28 0 51 17 60 42l46 0 0 192z m-39-170c0-12-9-22-21-22l-320 0c-12 0-21 10-21 22l0 149c0 12 9 21 21 21l320 0c12 0 21-9 21-21l0-149z m43 21l-22 0 0 107 22 0z"/>
<glyph glyph-name="battery-1" unicode="&#112;" d="M444 341c-9 25-32 43-60 43l-320 0c-35 0-64-29-64-64l0-149c0-36 29-64 64-64l320 0c28 0 51 17 60 42l46 0 0 192z m-39-170c0-12-9-22-21-22l-320 0c-12 0-21 10-21 22l0 149c0 12 9 21 21 21l320 0c12 0 21-9 21-21l0-149z m43 21l-22 0 0 107 22 0z m-384 85l0-64c0-23 15-42 32-42l32 0 0 149-32 0c-17 0-32-19-32-43z"/>
<glyph glyph-name="battery-2" unicode="&#113;" d="M444 341c-9 25-32 43-60 43l-320 0c-35 0-64-29-64-64l0-149c0-36 29-64 64-64l320 0c28 0 51 17 60 42l46 0 0 192z m-39-170c0-12-9-22-21-22l-320 0c-12 0-21 10-21 22l0 149c0 12 9 21 21 21l320 0c12 0 21-9 21-21l0-149z m43 21l-22 0 0 107 22 0z m-299 128l64 0 0-149-64 0z m-85-43l0-64c0-23 15-42 32-42l32 0 0 149-32 0c-17 0-32-19-32-43z"/>
<glyph glyph-name="battery-3" unicode="&#114;" d="M444 341c-9 25-32 43-60 43l-320 0c-35 0-64-29-64-64l0-149c0-36 29-64 64-64l320 0c28 0 51 17 60 42l46 0 0 192z m-39-170c0-12-9-22-21-22l-320 0c-12 0-21 10-21 22l0 149c0 12 9 21 21 21l320 0c12 0 21-9 21-21l0-149z m43 21l-22 0 0 107 22 0z m-299 128l64 0 0-149-64 0z m86 0l64 0 0-149-64 0z m-171-43l0-64c0-23 15-42 32-42l32 0 0 149-32 0c-17 0-32-19-32-43z"/>
<glyph glyph-name="battery-4" unicode="&#115;" d="M444 341c-9 25-32 43-60 43l-320 0c-35 0-64-29-64-64l0-149c0-36 29-64 64-64l320 0c28 0 51 17 60 42l46 0 0 192z m-39-170c0-12-9-22-21-22l-320 0c-12 0-21 10-21 22l0 149c0 12 9 21 21 21l320 0c12 0 21-9 21-21l0-149z m43 21l-22 0 0 107 22 0z m-299 128l64 0 0-149-64 0z m86 0l64 0 0-149-64 0z m117 0l-32 0 0-149 32 0c17 0 32 19 32 42l0 64c0 24-15 43-32 43z m-288-43l0-64c0-23 15-42 32-42l32 0 0 149-32 0c-17 0-32-19-32-43z"/>
<glyph glyph-name="battery-power" unicode="&#116;" d="M444 341c-9 25-32 43-60 43l-320 0c-35 0-64-29-64-64l0-149c0-36 29-64 64-64l320 0c27 0 51 17 60 42l46 0 0 192z m-39-170c0-12-10-22-21-22l-320 0c-12 0-21 10-21 22l0 149c0 12 9 21 21 21l320 0c11 0 21-9 21-21l0-149z m43 21l-22 0 0 107 22 0z m-233 0l22 43 106 0-128 64-21-43-107 0z"/>
<glyph glyph-name="beer" unicode="&#117;" d="M341 341l0-192 21 0 0 192z m-213 128l0-85-86 0 0-299 86 0 0-21c0-12 10-21 22-21l298 0 0 426z m21-298l-21 0 0 128 21 0z m256-43l-21 0 0-21 21 0 0-22-235 0 0 22 22 0 0 21-22 0 0 192-64 0 0-171 43 0 0-21-64 0 0 213 85 0 0 22 235 0z m0 256l-235 0 0 43 235 0z m-43-277l-21 0 0 21 21 0z m-42 0l-22 0 0 21 22 0z m-43 0l-21 0 0 21 21 0z m-43 0l-21 0 0 21 21 0z m64 234l0-192 22 0 0 192z"/>
<glyph glyph-name="bolt" unicode="&#118;" d="M354 265l-92 20 43 198-147-220 74-16-47-218z"/>
<glyph glyph-name="bones" unicode="&#119;" d="M466 197c-2 1-4 2-6 2l-4 3-87 61 26 19c23-10 55 10 69 18 35 22 45 69 23 103-20 32-60 44-93 29l-1 0c-19 30-58 39-88 20-20-12-34-47-18-87l-31-23-34 25c14 40-1 75-21 86-31 18-70 8-88-22l0-1c-34 14-74 1-93-31-21-36-9-81 26-102 14-9 47-28 70-17l30-20-89-67-4-2c-2-1-3-2-5-4-35-21-45-68-23-103 22-34 68-45 103-23 16 11 28 27 32 46l99 74 97-68c5-19 17-35 34-45 35-21 81-9 102 26 21 36 9 82-26 103z m-171 118l49 36-12 18c-16 25-8 45-4 47 10 7 23 4 29-6l23-36 27 17c15 9 35 5 44-10 10-15 5-35-10-44-16-11-24-14-29-15l-9 15-59-42-17-13-40 27z m-97-126l-77-57-1-10c-1-10-7-19-15-25-15-9-35-5-44 10-10 15-5 35 10 44 2 2 4 3 6 3l21 15 86 64 9 6 39-26z m257-73c-9-15-28-20-44-11-8 5-14 13-15 24l-1 10-100 68-37 25-39 27-48 32-65 45-9-16c-4 0-12 4-29 13-15 9-20 29-11 44 9 15 28 21 44 12l27-17 22 37c6 10 19 14 29 8 3-3 12-22-3-48l-11-18 53-37 39-27 39-27 37-26 83-58 22-13c2-1 4-2 6-3 15-9 20-29 11-44z"/>
<glyph glyph-name="book-close" unicode="&#120;" d="M190 492l-92-68-13 3 0-363 278-64 0 363-209 49 45 35 206-42 0-170 22 0 0 209z"/>
<glyph glyph-name="book-open" unicode="&#121;" d="M212 312c-36 28-80 58-149 63z m0-64c-36 28-80 58-149 63z m-64-23c-24 11-51 20-85 22z m130 87l150 63c-69-5-113-35-150-63z m0-64l150 63c-69-5-113-35-150-63z m150-1c-34-2-62-11-85-22z m42 257c-93 0-178-43-222-78l-6 0c-43 35-128 78-222 78l-20 0 0-405 20 0c69 0 146-27 180-52 10-8 19-16 27-24l17-16 2 0 17 16c9 8 18 16 28 24 34 25 110 52 179 52l21 0 0 405z m-235-430c0 2-6 5-8 7-36 27-120 55-184 60l0 320c85-7 155-48 185-78l6-7 1 0z m213 67c-64-5-148-33-184-60-3-2-8-5-8-7l0 302 1 0 6 7c30 30 100 71 185 78z"/>
<glyph glyph-name="bookmark" unicode="&#122;" d="M64 512l0-495 175 102 188-109 0 502z m43-420l0 377 128 0 0-306-14-7z m277-8l-119 72-9 6 0 307 128 0z"/>
<glyph glyph-name="box" unicode="&#65;" d="M21 448l0-149 22 0 0-235 426 0 0 235 22 0 0 149z m406-341l-342 0 0 192 342 0z m21 234l-384 0 0 64 384 0z m-64-64l-256 0 0-149 256 0z m-21-128l-214 0 0 107 214 0z m-22 86l-170 0 0-22 170 0z m-64-43l-106 0 0-21 106 0z"/>
<glyph glyph-name="browser" unicode="&#66;" d="M0 491l0-470 512 0 0 470z m469-427l-426 0 0 277 426 0z m0 299l-426 0 0 85 426 0z m-234 64l-43 0 0-43 43 0z m-64 0l-43 0 0-43 43 0z m-64 0l-43 0 0-43 43 0z"/>
<glyph glyph-name="bubble" unicode="&#67;" d="M427 491l-363 0c-35 0-64-29-64-64l0-256c0-36 43-43 64-43l0-128 192 128 171 0c35 0 64 29 64 64l0 235c0 35-29 64-64 64z m21-299c0-12-10-21-21-21l-192 0-128-107 0 107-43 0c-12 0-21 9-21 21l0 235c0 11 9 21 21 21l363 0c11 0 21-10 21-21z"/>
<glyph glyph-name="bubble-1" unicode="&#68;" d="M139 320c17 0 32-14 32-32 0-18-15-32-32-32-18 0-32 14-32 32 0 18 14 32 32 32z m288 171l-363 0c-35 0-64-29-64-64l0-256c0-36 43-43 64-43l0-128 192 128 171 0c35 0 64 29 64 64l0 235c0 35-29 64-64 64z m21-299c0-12-10-21-21-21l-192 0-128-107 0 107-43 0c-12 0-21 9-21 21l0 235c0 11 9 21 21 21l363 0c11 0 21-10 21-21z"/>
<glyph glyph-name="bubble-2" unicode="&#69;" d="M139 320c17 0 32-14 32-32 0-18-15-32-32-32-18 0-32 14-32 32 0 18 14 32 32 32z m106 0c18 0 32-14 32-32 0-18-14-32-32-32-17 0-32 14-32 32 0 18 15 32 32 32z m182 171l-363 0c-35 0-64-29-64-64l0-256c0-36 43-43 64-43l0-128 192 128 171 0c35 0 64 29 64 64l0 235c0 35-29 64-64 64z m21-299c0-12-10-21-21-21l-192 0-128-107 0 107-43 0c-12 0-21 9-21 21l0 235c0 11 9 21 21 21l363 0c11 0 21-10 21-21z"/>
<glyph glyph-name="bubble-3" unicode="&#70;" d="M139 320c17 0 32-14 32-32 0-18-15-32-32-32-18 0-32 14-32 32 0 18 14 32 32 32z m106 0c18 0 32-14 32-32 0-18-14-32-32-32-17 0-32 14-32 32 0 18 15 32 32 32z m107 0c18 0 32-14 32-32 0-18-14-32-32-32-18 0-32 14-32 32 0 18 14 32 32 32z m75 171l-363 0c-35 0-64-29-64-64l0-256c0-36 43-43 64-43l0-128 192 128 171 0c35 0 64 29 64 64l0 235c0 35-29 64-64 64z m21-299c0-12-10-21-21-21l-192 0-128-107 0 107-43 0c-12 0-21 9-21 21l0 235c0 11 9 21 21 21l363 0c11 0 21-10 21-21z"/>
<glyph glyph-name="bucket" unicode="&#71;" d="M448 363l0 43-300 0-25 70c-4 11-16 17-27 13-11-4-17-17-13-28l19-55-59 0 0-43-43 0 0-192 64 0 0-171 363 0 0 171 64 0 0 192-43 0z m-384-171l-43 0 0 150 22 0 0-64 21 0z m320-149l-277 0 0 128 66 0c4-21 16-21 30-21l85 0c14 0 26 0 30 21l66 0z m-192 138l0 0c0 6 5 11 11 11l85 0c6 0 11-5 11-11l0 0c0-6-5-10-11-10l-85 0c-6 0-11 4-11 10z m192 11l-66 0c-4 22-16 22-30 22l-85 0c-14 0-26 0-30-22l-66 0 0 107 277 0z m21 128l-320 0 0 43 320 0z m64-128l-42 0 0 86 21 0 0 64 21 0z"/>
<glyph glyph-name="calculator" unicode="&#72;" d="M85 171l64 0 0 64-64 0z m22 42l21 0 0-21-21 0z m64-42l64 0 0 64-64 0z m21 42l21 0 0-21-21 0z m-21-128l64 0 0 64-64 0z m21 43l21 0 0-21-21 0z m-107-43l64 0 0 64-64 0z m22 43l21 0 0-21-21 0z m149 43l64 0 0 64-64 0z m21 42l22 0 0-21-22 0z m-64 86l22 0 0 21-22 0z m-42 0l21 0 0 21-21 0z m-86-43l342 0 0 192-342 0z m22 171l298 0 0-150-298 0z m320 85l-342 0c-35 0-64-29-64-64l0-384c0-35 29-64 64-64l342 0c35 0 64 29 64 64l0 384c0 35-29 64-64 64z m21-448c0-12-10-21-21-21l-342 0c-11 0-21 9-21 21l0 384c0 12 10 21 21 21l342 0c11 0 21-9 21-21z m-192 21l64 0 0 64-64 0z m21 43l22 0 0-21-22 0z m64-43l86 0 0 150-86 0z m22 128l42 0 0-106-42 0z m-235 86l21 0 0 21-21 0z"/>
<glyph glyph-name="calendar" unicode="&#73;" d="M427 427l0 85-128 0 0-85-86 0 0 85-128 0 0-85-85 0 0-406 512 0 0 406z m-86 42l43 0 0-85-43 0z m-213 0l43 0 0-85-43 0z m341-405l-426 0 0 235 426 0z m0 256l-426 0 0 64 42 0 0-43 128 0 0 43 86 0 0-43 128 0 0 43 42 0z m-362-85l42 0 0-43-42 0z m64 0l42 0 0-43-42 0z m64 0l42 0 0-43-42 0z m64 0l42 0 0-43-42 0z m64 0l42 0 0-43-42 0z m-256-64l42 0 0-43-42 0z m64 0l42 0 0-43-42 0z m64 0l42 0 0-43-42 0z"/>
<glyph glyph-name="camera" unicode="&#74;" d="M267 320c-53 0-96-43-96-96 0-53 43-96 96-96 53 0 96 43 96 96 0 53-43 96-96 96z m-38-32c11 7 24 11 38 11 38 0 69-29 73-66-36 28-80 46-111 55z m251 117l-103 0-14 43-214 0-14-43-82 0c-23 0-53-19-53-42l0-256c0-24 30-43 53-43l427 0c24 0 32 19 32 43l0 256c0 23-8 42-32 42z m-213-320c-77 0-139 62-139 139 0 77 62 139 139 139 76 0 138-62 138-139 0-77-62-139-138-139z m202 235l-42 0 0 43 42 0z"/>
<glyph glyph-name="cardiac-pulse" unicode="&#75;" d="M443 444c-128 18-257 18-386 0-34-5-57-37-57-71l0-234c0-34 19-66 53-71 64-9 126-14 191-14 65 0 137 5 202 14 33 5 66 37 66 71l0 234c0 34-35 66-69 71z m-400-71c0 13 3 27 16 29 56 8 111 12 167 13l-84-149-99 0z m426-234c0-13-19-27-32-29-124-17-249-17-374 0-13 2-20 16-20 29l0 85 125 0 37 58 19-153 109 95 136 0z m0 127l-151 0-61-60-23 209c3 0 7 0 10 0 63 0 133-5 195-13 13-2 30-16 30-29z m-128 97l22 0 0-22-22 0z m43 0l21 0 0-22-21 0z"/>
<glyph glyph-name="cd" unicode="&#76;" d="M437 437c-46 46-110 75-181 75-71 0-135-29-181-75-46-46-75-110-75-181 0-71 29-135 75-181 46-46 110-75 181-75 71 0 135 29 181 75 46 46 75 110 75 181 0 71-29 135-75 181z m-96-181c0-24-9-45-25-60-15-16-36-25-60-25-24 0-45 9-60 25-16 15-25 36-25 60 0 24 9 45 25 60 15 16 36 25 60 25 24 0 45-9 60-25 16-15 25-36 25-60z m-298 0c0 59 24 112 62 151l61-61c-24-23-38-55-38-90 0-35 14-67 38-90l-61-61c-38 39-62 92-62 151z m364-151l-61 61c24 23 38 55 38 90 0 35-14 67-38 90l61 61c38-39 62-92 62-151 0-59-24-112-62-151z"/>
<glyph glyph-name="character" unicode="&#77;" d="M427 448l0 43-128 0 0-43 42 0 0-384-42 0 0-43 128 0 0 43-43 0 0 384z m-128-50c0 2-4 5-7 7-12 9-25 14-39 17-15 3-32 4-51 4-14 0-28-2-43-7-15-4-27-10-38-16-12-8-22-17-29-26-8-10-11-20-11-31 0-10 2-19 8-27 5-8 14-12 25-12 13 0 23 3 31 10 7 6 10 14 10 22 0 7-1 16-3 25-2 9-3 15-3 20 4 4 10 8 19 11 9 4 19 6 30 6 15 0 27-3 35-10 9-6 15-14 20-22 4-8 3-25 3-25l0-51c0-6-29-14-61-25-31-10-51-18-61-22-8-3-16-7-26-13-9-5-16-11-22-18-8-8-13-18-17-28-3-10-5-22-5-35 0-26 8-46 25-62 16-16 37-23 63-23 24 0 45 9 62 18 17 9 33 22 48 43l2 0c3-21 10-34 21-42l14-1z m-37-254c-9-10-19-20-32-28-12-8-27-12-43-12-16 0-28 5-38 14-10 9-15 23-15 42 0 15 3 28 10 38 6 11 15 20 27 28 13 9 26 16 41 21 15 6 30 11 50 16z"/>
<glyph glyph-name="checkbox-checked" unicode="&#78;" d="M85 384l206 0 25 42-273 1 0-214 42 43z m0-299c0 2 1 52 1 64-23 34-43 64-43 64l0-170 122-1c0 0-12 19-29 43-16 0-42 0-51 0z m320 0l-126 0-26-43 195 1 0 298-43-42z m-21 395l-176-299-49 85-74-42 122-213 251 426z"/>
<glyph glyph-name="checkmark" unicode="&#79;" d="M192 21l-122 214 74 42 49-86 176 300 73-44z"/>
<glyph glyph-name="clipboard" unicode="&#80;" d="M43 512l0-512 426 0 0 512z m384-469l-342 0 0 426 342 0z m-22 384l-64 0 0 21-170 0 0-21-64 0 0-363 298 0z m-213 0l128 0 0-22-128 0z m192-342l-256 0 0 320 43 0 0-21 170 0 0 21 43 0z m-235 235l192 0 0 43-192 0z m0-43l192 0 0 22-192 0z m0-42l192 0 0 21-192 0z m0-43l192 0 0 21-192 0z m0-43l86 0 0 22-86 0z"/>
<glyph glyph-name="clock" unicode="&#81;" d="M256 512c-141 0-256-115-256-256 0-141 115-256 256-256 141 0 256 115 256 256 0 141-115 256-256 256z m0-469c-118 0-213 95-213 213 0 118 95 213 213 213 118 0 213-95 213-213 0-118-95-213-213-213z m95 360c-11 5-23 1-29-9l-72-145-43 43c-8 9-22 9-30 0-8-8-8-21 0-30l64-64c4-4 9-6 15-6 1 0 2 0 3 0 7 1 13 6 16 12l85 170c6 11 1 24-9 29z m-116-296l42 0 0-22-42 0z m0 341l42 0 0-21-42 0z m-171-171l43 0 0-21-43 0z m341 0l43 0 0-21-43 0z"/>
<glyph glyph-name="cloud" unicode="&#82;" d="M408 64c61 0 101 67 101 136 0 59-48 111-107 119l-10 26c-23 63-81 103-147 103-87 0-158-72-158-160 0-4 0-8 0-11-47-6-84-46-84-96 0-45 35-110 85-117z m-110 175c19 28 57 30 74 39l0-1 15 0c42 0 80-32 80-72 0-39-26-98-68-98l-309 0c-23 0-45 50-45 79 0 33 29 57 64 50l33-8-8 32c-2 9-5 18-5 28 0 65 52 117 116 117 49 0 90-28 107-75-43-25-56-86-56-86"/>
<glyph glyph-name="coffee" unicode="&#83;" d="M454 363l-36 106-55 0 0 22-128 0 0-22-146 0-36-106 32 0 43-363 251 0 43 363z m-334 64l157 0 0 21 43 0 0-21 68 0 7-22-282 0z m16-128l235 0-12-107-211 0z m30-256l-15 128 205 0-15-128z m208 277l-241 0-5 43 251 0z"/>
<glyph glyph-name="comment" unicode="&#84;" d="M427 491l-363 0c-35 0-64-29-64-64l0-256c0-36 43-43 64-43l0-128 192 128 171 0c35 0 64 29 64 64l0 235c0 35-29 64-64 64z m21-299c0-12-10-21-21-21l-192 0-128-107 0 107-43 0c-12 0-21 9-21 21l0 235c0 11 9 21 21 21l363 0c11 0 21-10 21-21z m-363 192l256 0 0-43-256 0z m0-64l320 0 0-21-320 0z m0-43l320 0 0-21-320 0z m0-42l171 0 0-22-171 0z"/>
<glyph glyph-name="connection-0" unicode="&#85;" d="M299 469l0-85-86 0 0-85-85 0 0-86-85 0 0-170 405 0 0 426z m-150-384l-64 0 0 86 64 0z m86 0l-64 0 0 171 64 0z m85 0l-64 0 0 256 64 0z m85 0l-64 0 0 342 64 0z"/>
<glyph glyph-name="connection-1" unicode="&#86;" d="M299 469l0-85-86 0 0-85-85 0 0-86-85 0 0-170 405 0 0 426z m-64-384l-64 0 0 171 64 0z m85 0l-64 0 0 256 64 0z m85 0l-64 0 0 342 64 0z"/>
<glyph glyph-name="connection-2" unicode="&#87;" d="M299 469l0-85-86 0 0-85-85 0 0-86-85 0 0-170 405 0 0 426z m21-384l-64 0 0 256 64 0z m85 0l-64 0 0 342 64 0z"/>
<glyph glyph-name="connection-3" unicode="&#88;" d="M299 469l0-85-86 0 0-85-85 0 0-86-85 0 0-170 405 0 0 426z m106-384l-64 0 0 342 64 0z"/>
<glyph glyph-name="connection-4" unicode="&#89;" d="M299 469l0-85-86 0 0-85-85 0 0-86-85 0 0-170 405 0 0 426z"/>
<glyph glyph-name="credit-cards" unicode="&#90;" d="M469 363l-42 0 0 12c0 24-19 52-43 52l-341 0c-24 0-43-28-43-52l0-192c0-23 19-34 43-34l21 0 0-51c0-24 19-34 43-34l362 0c24 0 43 10 43 34l0 213c0 24-19 52-43 52z m-405-171l-21 0 0 85 21 0z m6 149l-27 0 0 43 341 0 0-21-277 0c-16 0-30-22-37-22z m37-234l0 213 362 0 0-213z m234 64l107 0 0 85-107 0z m22 64l64 0 0-43-64 0z m-192-107l85 0 0 21-85 0z m-43 128l149 0 0 43-149 0z m149-128l22 0 0 21-22 0z m-149 0l21 0 0 21-21 0z"/>
<glyph glyph-name="crop" unicode="&#48;" d="M405 235l0 170-170 0 0 86-128 0 0-86-86 0 0-128 86 0 0-170 170 0 0-86 128 0 0 86 86 0 0 128z m-192 128l150 0 0-150-43 0 0 107-107 0z m64-86l0-42-42 0 0 42z m-149 43l-64 0 0 43 64 0z m235-256l-43 0 0 64 43 0z m85 85l-299 0 0 299 43 0 0-256 256 0z"/>
<glyph glyph-name="cube" unicode="&#49;" d="M258 501l-237-116 0-235 235-139 235 139 0 235z m-23-428l-171 101 0 142 171-84z m-161 287l185 94 185-94-185-91z m374-186l-192-114 0 165 192 91z"/>
<glyph glyph-name="diamond" unicode="&#50;" d="M371 470l-230 0-141-139 256-289 256 289z m90-151l-1 2-190 0 92 98z m-239-178l-150 158 99 0-10-4z m-40 158l148 0-74-184z m159 0l99 0-150-158 61 154z m-85 37l-83 91 166 0z m-106 82l92-97-190 0-1-1z"/>
<glyph glyph-name="download" unicode="&#51;" d="M320 277l0 235-107 0 0-235-84 0 136-135 135 135z m110 86l-67 0 0-43 67 0c12 0 18 0 18-12l0-160c0-18-11-41-29-41l-326 0c-18 0-29 23-29 41l0 160c0 12 6 12 18 12l67 0 0 43-67 0c-35 0-61-20-61-55l0-235c0-35 26-73 61-73l348 0c35 0 61 38 61 73l0 235c0 35-26 55-61 55z m18-290c0-11-6-30-18-30l-348 0c-12 0-18 19-18 30l0 33c0-7 17-21 29-21l326 0c12 0 29 14 29 21z"/>
<glyph glyph-name="email" unicode="&#52;" d="M277 384l-128 0 0-43 128 0z m64-64l-192 0 0-21 192 0z m0-43l-192 0 0-21 192 0z m86-21l0 235-363 0 0-236-43 22 0-277 448 0 0 277z m-320 192l277 0 0-211-43-23 0 21-192 0 0-22 192 0-96-51-138 71z m-43-405l0 167 313-167z m363 22l-136 73 136 72z"/>
<glyph glyph-name="email-plane" unicode="&#53;" d="M230 207l-17-164 102 125 97-44 100 345z m282 262l-512-210 121-24 92-192-66 192z"/>
<glyph glyph-name="enter" unicode="&#54;" d="M260 265l-89 90 0-56-150 0 0-64 150 0 0-59z m-68 226l0-72 43-43 0 72 172 0-130-43 0-256-42 0 0 5-43-42 0-5 85 0 0-86 192 64 0 406z"/>
<glyph glyph-name="envelope" unicode="&#55;" d="M21 384l0-277 448 0 0 277z m43-235l0 168 332-168z m363 23l-136 72 136 73z m-169 97l-143 72 281 0z"/>
<glyph glyph-name="eyedropper" unicode="&#56;" d="M320 417l0 43c0 23-32 52-55 52l-18 0c-23 0-55-29-55-52l0-43c-21 0-43-19-43-42l0-22c0-15 0-29 22-37l0-231 21 0 0-85 128 0 0 85 21 0 0 231c22 8 22 22 22 37l0 22c0 23-22 42-43 42z m-43-374l-42 0 0 64 42 0z m22 85l-86 0 0 128 86 0z m0 149l-86 0 0 43 86 0z"/>
<glyph glyph-name="file" unicode="&#57;" d="M149 363l128 0 0-43-128 0z m0-64l192 0 0-22-192 0z m0-43l192 0 0-21-192 0z m0-43l192 0 0-21-192 0z m0-42l64 0 0-22-64 0z m202 298l-287 0 0-448 363 0 0 373z m33-93l0-13-64 0 0 64 13 0z m-277-312l0 363 192 0 0-86 85 0 0-277z"/>
<glyph glyph-name="file-add" unicode="&#33;" d="M171 363l0-43 128 0 0 43z m0-86l192 0 0 22-192 0z m192-21l-171 0 0-21 171 0z m0-64l0 21-150 0 0-21z m-192 21l-64 0 0-64-64 0 0-64 64 0 0-64 64 0 0 64 64 0 0 64-64 0z m-86 256l0-213 43 0 0 171 277 0 0-363-141 0-22-43 206 0 0 448z"/>
<glyph glyph-name="file-broken" unicode="&#34;" d="M64 469l0-448 363 0 0 448z m320-405l-277 0 0 363 277 0z m-191 109l52 53 53-53 30 30-52 53 52 53-30 30-53-53-52 53-31-30 53-53-53-53z"/>
<glyph glyph-name="file-settings" unicode="&#35;" d="M149 363l0-43 128 0 0 43z m0-86l192 0 0 22-192 0z m192-21l-64 0 0-21 64 0z m-64-64l64 0 0 21-64 0z m-213 277l0-213 43 0 0 171 277 0 0-363-107 0 0-43 150 0 0 448z m143-330c0 5-1 10-2 14l30 20-19 33-30-20c-6 5-12 8-19 11l0 38-36 0 0-38c-7-3-13-6-18-11l-30 20-19-33 30-20c-2-4-2-9-2-14 0-5 0-10 2-15l-30-20 19-33 30 21c5-5 11-9 18-11l0-38 36 0 0 37c7 3 13 7 19 11l30-20 19 33-30 20c1 5 2 10 2 15z m-58-39c-19 0-35 17-35 39 0 21 16 38 35 38 20 0 36-17 36-38 0-22-16-39-36-39z"/>
<glyph glyph-name="files" unicode="&#36;" d="M107 512l0-64-64 0 0-448 362 0 0 64 64 0 0 448z m256-469l-278 0 0 362 22 0 0-341 256 0z m64 64l-278 0 0 362 278 0z m-107 298l-128 0 0-42 128 0z m64-64l-192 0 0-21 192 0z m0-42l-192 0 0-22 192 0z m0-43l-192 0 0-21 192 0z m-128-43l-64 0 0-21 64 0z"/>
<glyph glyph-name="flag" unicode="&#37;" d="M405 469l0-8c-21 6-37 9-57 9-38 0-76-12-112-23-35-11-67-21-99-21-24 0-43 6-63 19l-31 21 0-328 7-7c27-17 55-25 88-25 38 0 74 11 110 23 34 11 69 21 100 21 20 0 36-4 57-13l0-138 43 0 0 470z m0-285c-21 6-37 9-57 9-38 0-76-12-112-23-35-11-65-22-97-22-20 0-32 5-54 14l0 230c22-6 34-9 54-9 38 0 74 12 110 23 34 11 68 22 99 22 20 0 36-5 57-14z"/>
<glyph glyph-name="folder" unicode="&#38;" d="M299 427l0 21c0 24-19 43-43 43l-85 0c-24 0-43-19-43-43l0-21-85 0 0-64-22 0 0-342 470 0 0 406z m149-363l-384 0 0 256 384 0z m0 299l-363 0 0 21 86 0 0 64 85 0 0-64 192 0z"/>
<glyph glyph-name="folder-add" unicode="&#39;" d="M299 448l0 21c0 24-19 43-43 43l-85 0c-24 0-43-19-43-43l0-21-85 0 0-64-22 0 0-149 43 0 0 106 384 0 0-256-235 0 0-42 278 0 0 405z m149-64l-363 0 0 21 86 0 0 64 85 0 0-64 192 0z m-320-171l-64 0 0-64-64 0 0-64 64 0 0-64 64 0 0 64 64 0 0 64-64 0z"/>
<glyph glyph-name="folder-check" unicode="&#40;" d="M299 427l0 21c0 24-19 43-43 43l-85 0c-24 0-43-19-43-43l0-21-85 0 0-64-22 0 0-150 43 0 0 107 384 0 0-256-235 0 0-43 278 0 0 406z m149-64l-363 0 0 21 86 0 0 64 85 0 0-64 192 0z m-363-267l-15 40-32-39 52-70 86 139-32 19z"/>
<glyph glyph-name="folder-settings" unicode="&#41;" d="M299 427l0 21c0 24-19 43-43 43l-85 0c-24 0-43-19-43-43l0-21-85 0 0-64-22 0 0-150 43 0 0 107 384 0 0-256-235 0 0-43 278 0 0 406z m149-64l-363 0 0 21 86 0 0 64 85 0 0-64 192 0z m-289-267c1 3 1 7 1 11 0 4-1 7-1 11l33 19-19 29-31-19c-5 3-14 6-14 8l0 37-43 0 0-37c0-2-9-5-13-8l-31 19-19-29 33-19c-1-4-2-7-2-11 0-4 1-8 1-11l-33-20 19-29 32 20c4-4 13-7 13-8l0-38 43 0 0 38c0 1 9 4 14 8l32-20 18 29z m-52-23c-20 0-36 15-36 34 0 18 16 34 36 34 19 0 35-16 35-34 0-19-16-34-35-34z"/>
<glyph glyph-name="forbidden" unicode="&#42;" d="M245 448c-111 0-202-91-202-203 0-111 91-202 202-202 112 0 203 91 203 202 0 112-91 203-203 203z m-160-203c0 89 72 160 160 160 33 0 63-10 88-26l-221-222c-17 25-27 56-27 88z m160-160c-32 0-63 10-88 27l222 221c17-25 26-55 26-88 0-88-71-160-160-160z"/>
<glyph glyph-name="frames" unicode="&#43;" d="M448 384l0 64-448 0 0-320 64 0 0-64 448 0 0 320z m-384-213l-21 0 0 234 362 0 0-21-341 0z m405-64l-362 0 0 234 362 0z"/>
<glyph glyph-name="glass" unicode="&#44;" d="M149 128c0-12 10-21 22-21 11 0 21 9 21 21 0 12-10 21-21 21-12 0-22-9-22-21z m64 0c0-12 10-21 22-21 11 0 21 9 21 21 0 12-10 21-21 21-12 0-22-9-22-21z m64 0c0-12 10-21 22-21 11 0 21 9 21 21 0 12-10 21-21 21-12 0-22-9-22-21z m-149 53c0-6 5-10 11-10 6 0 10 4 10 10 0 6-4 11-10 11-6 0-11-5-11-11z m43 0c0-6 4-10 10-10 6 0 11 4 11 10 0 6-5 11-11 11-6 0-10-5-10-11z m42 0c0-6 5-10 11-10 6 0 11 4 11 10 0 6-5 11-11 11-6 0-11-5-11-11z m43 0c0-6 5-10 11-10 6 0 10 4 10 10 0 6-4 11-10 11-6 0-11-5-11-11z m43 0c0-6 4-10 10-10 6 0 11 4 11 10 0 6-5 11-11 11-6 0-10-5-10-11z m21 43c0-6 5-11 11-11 6 0 10 5 10 11 0 6-4 11-10 11-6 0-11-5-11-11z m-43 0c0-6 5-11 11-11 6 0 11 5 11 11 0 6-5 11-11 11-6 0-11-5-11-11z m-42 0c0-6 4-11 10-11 6 0 11 5 11 11 0 6-5 11-11 11-6 0-10-5-10-11z m-43 0c0-6 5-11 11-11 6 0 10 5 10 11 0 6-4 11-10 11-6 0-11-5-11-11z m-43 0c0-6 5-11 11-11 6 0 11 5 11 11 0 6-5 11-11 11-6 0-11-5-11-11z m-42 0c0-6 4-11 10-11 6 0 11 5 11 11 0 6-5 11-11 11-6 0-10-5-10-11z m311 152l19 38-150 79-52-130-171 0 0-320 43 0 0-43 213 0 0 43 64 0 0 320-107 0 35 70z m-119-333l-150 0 0 21 150 0z m42 277l0-235-234 0 0 22c11 0 21 9 21 21 0 12-10 21-21 21l0 171z"/>
<glyph glyph-name="graph" unicode="&#45;" d="M491 43l-43 0 0 21-21 0 0-21-43 0 0 21-21 0 0-21-43 0 0 21-21 0 0-21-43 0 0 21-21 0 0-21-43 0 0 21-21 0 0-21-94 0 112 67 56 163 83-145 160 266-37 22-123-204-93 164-81-237-111-67 0 440-43 0 0-512 512 0 0 64-21 0z m0 469l21 0 0-21-21 0z m-64 0l21 0 0-21-21 0z m-64 0l21 0 0-21-21 0z m-64 0l21 0 0-21-21 0z m-64 0l21 0 0-21-21 0z m-64 0l21 0 0-21-21 0z m-64 0l21 0 0-21-21 0z m-64 0l21 0 0-21-21 0z m448-64l21 0 0-21-21 0z m-64 0l21 0 0-21-21 0z m-64 0l21 0 0-21-21 0z m-64 0l21 0 0-21-21 0z m-64 0l21 0 0-21-21 0z m-64 0l21 0 0-21-21 0z m-64 0l21 0 0-21-21 0z m-64 0l21 0 0-21-21 0z m448-64l21 0 0-21-21 0z m-128 0l21 0 0-21-21 0z m-64 0l21 0 0-21-21 0z m-128 0l21 0 0-21-21 0z m-64 0l21 0 0-21-21 0z m-64 0l21 0 0-21-21 0z m448-64l21 0 0-21-21 0z m-192 0l21 0 0-21-21 0z m-128 0l21 0 0-21-21 0z m-64 0l21 0 0-21-21 0z m-64 0l21 0 0-21-21 0z m448-64l21 0 0-21-21 0z m-64 0l21 0 0-21-21 0z m-320 0l21 0 0-21-21 0z m-64 0l21 0 0-21-21 0z m448-64l21 0 0-21-21 0z m-64 0l21 0 0-21-21 0z m-192 0l21 0 0-21-21 0z m-128 0l21 0 0-21-21 0z m-64 0l21 0 0-21-21 0z m448-64l21 0 0-21-21 0z m-64 0l21 0 0-21-21 0z m-64 0l21 0 0-21-21 0z m-128 0l21 0 0-21-21 0z m-192 0l21 0 0-21-21 0z"/>
<glyph glyph-name="grid" unicode="&#46;" d="M21 469l0-448 448 0 0 448z m405-149l-106 0 0 107 106 0z m0-128l-106 0 0 107 106 0z m0-128l-106 0 0 107 106 0z m-362 107l107 0 0-107-107 0z m0 128l107 0 0-107-107 0z m0 128l107 0 0-107-107 0z m234-107l-106 0 0 107 106 0 0-107z m0-128l-106 0 0 107 106 0 0-107z m-106-21l106 0 0-107-106 0z"/>
<glyph glyph-name="heart" unicode="&#47;" d="M256 93l-1-1-170 217c-7 10-21 22-21 49 0 47 38 85 85 85 47 0 107-38 107-85l0 70c-23 35-62 58-107 58-70 0-128-58-128-128 0-44 22-64 27-79l208-252z m0 0l1-1 170 217c7 10 21 22 21 49 0 47-38 85-85 85-47 0-107-38-107-85l0 70c23 35 62 58 107 58 70 0 128-58 128-128 0-44-22-64-27-79l-208-252z"/>
<glyph glyph-name="home" unicode="&#58;" d="M448 349l0 142-107 0 0-64-85 64-256-192 64 0 0-278 384 0 0 278 64 0z m-192-285l-85 0 0 171 85 0z m149 0l-128 0 0 192-128 0 0-192-42 0 0 256 149 107 149-107z m0 339l-21 14 0 31 21 0z m-21-190l-85 0 0-85 85 0z m-21-64l-43 0 0 43 43 0z m-128 0l-22 0 0-21 22 0z"/>
<glyph glyph-name="id-card" unicode="&#59;" d="M235 341l-150 0 0-170 150 0z m-22-138c0 17-24 32-53 32-29 0-53-15-53-32l0 117 106 0z m-85 64c0-18 14-32 32-32 18 0 32 14 32 32 0 17-14 32-32 32-18 0-32-15-32-32z m340 160l-427 0c-23 0-41-18-41-41l0-256c0-24 18-45 41-45l427 0c23 0 44 21 44 45l0 256c0 23-21 41-44 41z m1-299l-426 0 0 256 426 0z m-192 213l150 0 0-42-150 0z m0-64l150 0 0-21-150 0z m0-42l150 0 0-22-150 0z m0-43l64 0 0-21-64 0z m86 0l21 0 0-21-21 0z"/>
<glyph glyph-name="invoice" unicode="&#60;" d="M171 491l0-86-150 0 0-320 131 0 36-85 235 0 46 43 0 448z m-107-363l0 176 70-176z m96 21l-85 214 85 0z m267-85l-25-21-189 0 0 405 214 0z m-192 341l106 0 0-21-106 0z m0-128l106 0 0-21-106 0z m0-42l106 0 0-22-106 0z m0-43l106 0 0-21-106 0z m0-43l106 0 0-21-106 0z m0-42l106 0 0-22-106 0z m128 298l42 0 0-21-42 0z m0-42l21 0 0-22-21 0z m-43 0l21 0 0-22-21 0z m-21 0l-64 0 0-22 64 0z m85-86l21 0 0-21-21 0z m0-42l21 0 0-22-21 0z m0-43l21 0 0-21-21 0z m0-43l21 0 0-21-21 0z"/>
<glyph glyph-name="ipad" unicode="&#61;" d="M405 491l-298 0c-24 0-43-20-43-43l0-384c0-23 19-43 43-43l298 0c24 0 43 20 43 43l0 384c0 23-19 43-43 43z m-128-448l-42 0 0 42 42 0z m128 64l-298 0 0 341 298 0z"/>
<glyph glyph-name="ipad-2" unicode="&#62;" d="M491 107l0 298c0 24-20 43-43 43l-384 0c-23 0-43-19-43-43l0-298c0-24 20-43 43-43l384 0c23 0 43 19 43 43z m-448 128l0 42 42 0 0-42z m64-128l0 298 341 0 0-298z"/>
<glyph glyph-name="lab" unicode="&#63;" d="M448 155c0 0-149 149-149 165l0 21 42 0 0 128-192 0 0-128 43 0 0-21c0-16-149-165-149-165-28-32-22-57-17-69 5-12 24-43 37-43l364 0c14 0 33 31 38 43 5 12 11 37-17 69z m-22-52c-2-5-7-12-11-18l-340 0c-4 6-8 13-10 18-3 7 4 17 9 23 160 161 160 175 161 194l0 64-43 0 0 0 0 43 107 0 0-43-43 0 0-65c0-18 1-32 161-193 5-6 12-16 9-23z m-170 153l-21 0-128-128 0-21 277 0 0 21z m-43-64l22 43 21 0 21-43z"/>
<glyph glyph-name="laptop" unicode="&#64;" d="M64 384l384 0 0-213 43 0 0 256-470 0 0-256 43 0z m277-235c-4-8-24-15-42-19l0-2-86 0 0 2c-18 4-38 11-42 19l-171 0 0-21c0-23 64-43 64-43l384 0c0 0 64 20 64 43l0 21z m86-42l-22 0 0 21 22 0z"/>
<glyph glyph-name="list" unicode="&#91;" d="M192 448l0-405 256 0 0 170 64 0 0 235z m213-363l-170 0 0 64 170 0 0-64z m0 86l-170 0 0 64 170 0 0-64z m64 85l-234 0 0 64 234 0z m0 85l-234 0 0 64 234 0z m-469-298l149 0 0 405-149 0z m43 362l64 0 0-64-64 0z m0-85l64 0 0-64-64 0z m0-85l64 0 0-64-64 0z m0-86l64 0 0-64-64 0z"/>
<glyph glyph-name="lock" unicode="&#93;" d="M405 320l0 64c0 43-42 107-149 107-107 0-149-64-149-107l0-64-43 0 0-235c0-35 29-64 64-64l256 0c35 0 64 29 64 64l0 235z m-256 85c0 0 22 43 107 43 85 0 107-43 107-43l0-85-214 0z m256-320c0-11-9-21-21-21l-256 0c-12 0-21 10-21 21l0 192 298 0z m-170 70l0-48 42 0 0 48c13 8 22 21 22 37 0 24-19 43-43 43-24 0-43-19-43-43 0-16 9-29 22-37z"/>
<glyph glyph-name="locked" unicode="&#94;" d="M235 134l0-49 42 0 0 49c13 7 22 21 22 37 0 23-19 42-43 42-24 0-43-19-43-42 0-16 9-30 22-37z m170 165l0 85c0 43-42 107-149 107-107 0-149-64-149-107l0-149 42 0 0 170c0 0 22 43 107 43 85 0 107-43 107-43l0-106-171 0 0-43 213 0 0-192c0-12-9-21-21-21l-256 0c-12 0-21 9-21 21l0 128-43 0 0-128c0-35 29-64 64-64l256 0c35 0 64 29 64 64l0 235z"/>
<glyph glyph-name="map" unicode="&#95;" d="M329 500l-154-86-175 98 0-390 180-98 145 86 166-92 0 390z m119-249l-107 55 0 134 107-58z m-256 127l107 60 0-133-107-61z m0-159l107 61 0-134-107-61z m-43 159l0-134-106 65 0 129z m-106-94l106-64 0-135-106 61z m298-137l0 135 107-55 0-137z"/>
<glyph glyph-name="measure" unicode="&#96;" d="M64 213l21 0 0 22-21 0z m21 214l-21 0 0-22 21 0z m0-384l-21 0 0-22-43 0 0-21 107 0 0 21-43 0z m-21 298l21 0 0 22-21 0z m0-64l21 0 0 22-21 0z m128 235l0-512 277 0 0 512z m171-469l-128 0 0 426 128 0z m64 0l-43 0 0 42 43 0z m0 64l-43 0 0 42 43 0z m0 64l-43 0 0 42 43 0z m0 64l-43 0 0 42 43 0z m0 64l-43 0 0 42 43 0z m0 64l-43 0 0 42 43 0z m0 64l-43 0 0 42 43 0z m-406 64l43 0 0-22 21 0 0 22 43 0 0 21-107 0z m43-406l21 0 0 22-21 0z m0 64l21 0 0 22-21 0z"/>
<glyph glyph-name="meter" unicode="&#123;" d="M256 512c-141 0-256-115-256-256 0-141 115-256 256-256 141 0 256 115 256 256 0 141-115 256-256 256z m0-469c-118 0-213 95-213 213 0 118 95 213 213 213 118 0 213-95 213-213 0-118-95-213-213-213z m-104 348c0 0 0 0 0 0 0 0 0 0 0 0 0 0-1 0-1 0 0 0 0 0 0 0 0 0 0 0 0 0 0 0 0 0 0 0 0 0 0 0 0 0l0 0c0 0 0 0 0 0 0 0 0 0 0 0 0 0 0 0 0 0 0-1 0-1 0-1 0 0 0 0 0 0 0 0 0 0 0 0 0 0 0 0 0 0l0 0c0 0 0 0 0 0 0 0-1 0-1 0l0 0c0 0 0 0 0 0 0 0 0 0 0 0 0 0 0 0 0 0 0 0 0 0 0 0 0 0 0 0 0 0 0 0 0 0 0 0 0 0 0 0 0 0 0-1 0-1-1-1l0 0c-2-2-4-3-6-5 0-1-1-1-1-1l0 0c0 0 0 0 0 0l0 0c0 0 0 0 0 0l0 0c0 0 0 0 0 0 0 0 0 0 0 0 0 0 0 0 0 0l0 0c0 0 0 0 0 0 0 0 0 0 0 0l-1-1c0 0 0 0 0 0 0 0 0 0 0 0 0 0 0 0 0 0 0 0 0 0 0 0 0 0 0 0 0 0l0 0c0 0 0 0 0 0 0 0 0 0 0 0 0 0 0 0 0 0l0 0c0 0 0 0 0 0 0 0 0 0 0 0 0 0 0 0 0 0 0 0 0 0 0 0 0 0 0 0 0 0 0 0-1 0-1 0 0 0 0 0 0 0 0 0 0 0 0-1 0 0 0 0 0 0l0 0c0 0 0 0 0 0 0 0 0 0 0 0l0 0 0 0c0 0 0 0 0 0 0 0 0 0 0 0 0 0 0 0 0 0l14-16c5 4 10 9 15 12l-13 17c-1-1-3-2-4-3z m-38-88l-20 7c-1-4-2-8-3-12 0 0-1 0-1 0l0 0c0 0 0 0 0-1l0 0c0 0 0 0 0 0 0 0 0 0 0 0 0 0 0 0 0-1l0 0c0 0 0 0 0 0l0 0c0 0 0 0 0 0 0 0 0 0 0 0 0 0 0 0 0 0l0 0c0-1 0-1 0-1 0 0 0 0 0 0 0 0 0 0 0 0 0 0 0 0 0 0 0 0 0 0 0 0l0 0c0 0 0 0 0 0 0 0 0 0 0 0 0-1 0-1 0-1 0 0 0 0 0 0l0 0c0 0 0 0-1 0l0 0c0 0 0-1 0-1l0 0c0 0 0 0 0 0 0 0 0 0 0 0 0 0 0 0 0 0 0 0 0 0 0 0 0 0 0 0 0-1l0 0c0 0 0 0 0 0 0 0 0 0 0-1 0 0 0 0 0 0 0 0 0-1 0-2l20-4c2 6 3 12 5 18z m142 102c2 0 3 0 5 0l1 22c-2 0-3 0-5 0l0 0c0 0 0 0 0 0l0 0c0 0 0 0 0 0l0 0c0 0 0 0 0 0l-1 0c0 0 0 0 0 0l0 0c0 0 0 0 0 0l0 0c0 0 0 0 0 0l0 0c0 0 0 0 0 0 0 0-1 0-1 0l0 0c0 0 0 0 0 0l0 0c0 0 0 0 0 0l-1 0c0 0 0 0 0 0l0 0c0 0 0 0 0 0l-1 0c0 0 0 0 0 0l0 0c0 0 0 0 0 0l0 0c0 0 0 0 0 0 0 0 0 0 0 0 0 0 0 0 0 0l0 0c0 0 0 0 0 0l-1 0c0 0 0 0 0 0l0 0c0 0-1 0-1 0 0 0 0 0 0 0l-1 0c-4-1-9-1-14-1 0-1 0-1 0-1l0 0c-1 0-1 0-1 0 0 0 0 0 0 0l0 0c0 0 0 0 0 0 0 0 0 0 0 0 0 0 0 0 0 0l0 0 0 0 0 0 2-21c7 1 13 1 19 1z m-163-200l0 0c0 0 0 0 0 0 0-1 0-1 0-1l0 0c2-6 5-13 8-19l19 9c-2 6-5 11-7 17z m327 99c-2 6-4 12-6 17l0 0c0 0 0 0 0 0l0 0c0 0 0 1 0 1 0 0 0 0 0 0l0 0c-1 0-1 0-1 0 0 0 0 0 0 0 0 0 0 0 0 0 0 0 0 0 0 0 0 0 0 0 0 0 0 0 0 0 0 0 0 0 0 0 0 0 0 0 0 0 0 1l0 0c0 0 0 0 0 0 0 0 0 0 0 0 0 0 0 0 0 0 0 0 0 0 0 0 0 0 0 0 0 0l0 0 0 0c0 0 0 0 0 0l0 0c0 0 0 0 0 0 0 0 0 0 0 0 0 0 0 1 0 1l0 0 0 0c0 0-1 0-1 0l-19-8c2-6 5-12 6-18z m-18-80c-1-6-3-12-5-18l20-7c1 2 1 3 1 4l1 2c1 5 3 10 4 15z m-46 170c0 0 0 0 0 0 0 0 0 0 0 0l0 0c0 0 0 0 0 0 0 0 0 0 0 0 0 0 0 0 0 0 0 0 0 0 0 0 0 0 0 0 0 0 0 0 0 0 0 1 0 0 0 0 0 0 0 0 0 0 0 0 0 0 0 0 0 0 0 0-1 0-1 0 0 0 0 0 0 0l0 0c0 0 0 0 0 0l0 0c-4 3-8 5-12 8l-11-18c5-4 11-7 15-11l13 17c-1 1-2 2-3 3 0 0 0 0-1 0z m-139-58c0 0-32-127-23-161 10-34 45-54 79-45 34 10 54 45 45 79-10 34-101 127-101 127z m50-185c-22-6-46 7-52 30-6 22 7 46 30 52 22 6 46-7 52-30 6-22-7-46-30-52z"/>
<glyph glyph-name="micro" unicode="&#124;" d="M299 491l-107 0c-35 0-64-29-64-64l0-192c0-36 29-64 64-64l107 0c35 0 64 28 64 64l0 192c0 35-29 64-64 64z m21-107l0-21-43 0 0-22 43 0 0-21-43 0 0-21 43 0 0-22-43 0 0-21 43 0 0-21c0-12 2-22-10-22l-129 0c-12 0-10 10-10 22l0 21 42 0 0 21-42 0 0 22 42 0 0 21-42 0 0 21 42 0 0 22-42 0 0 21 42 0 0 21-42 0 0 22c0 11-2 21 10 21l129 0c12 0 10-10 10-21l0-22-43 0 0-21z m85-128l0 43-21 0 0-107c0-24-16-43-50-43l-178 0c-34 0-49 19-49 43l0 107-22 0 0-43-21 0 0-43 21 0 0-21c0-48 13-64 71-64l36 0 0-64-43 0 0-43 192 0 0 43-42 0 0 64 35 0c58 0 71 16 71 64l0 21 22 0 0 43z"/>
<glyph glyph-name="micro-mute" unicode="&#125;" d="M85 197l22 21 0 81-22 0 0-43-21 0 0-43 21 0z m320 59l0 43-21 0 0-107c0-24-41-43-76-43l-104 0-43-21 31 0 0-64-43 0 0-43 192 0 0 43-42 0 0 64 9 0c58 0 97 16 97 64l0 21 22 0 0 43z m-128 128l0 21-21 0 0-21z m-106-85l42 0 0 21-42 0 0 21 42 0 0 22-42 0 0 21 42 0 0 21-42 0 0 22c0 11-6 21 6 21l107 0c10 0 18-7 20-17l32 32c-11 17-30 28-52 28l-107 0c-35 0-49-29-49-64l0-187 43 42z m113-86l-38 0-42-42 80 0c35 0 79 28 79 64l0 80-43-43 0-37c0-12-24-22-36-22z m91 227l-299-299 21-43 299 299z"/>
<glyph glyph-name="microwave" unicode="&#126;" d="M448 448l-384 0c-35 0-64-29-64-64l0-235c0-35 29-64 64-64l21 0 22-42 21 0 21 42 214 0 21-42 21 0 22 42 21 0c35 0 64 29 64 64l0 235c0 35-29 64-64 64z m21-299c0-11-9-21-21-21l-384 0c-12 0-21 10-21 21l0 235c0 12 9 21 21 21l384 0c12 0 21-9 21-21z m-405 0l320 0 0 235-320 0z m21 214l278 0 0-192-278 0z m320 0l22 0 0-22-22 0z m22-22l21 0 0-21-21 0z m-22-21l22 0 0-21-22 0z m22-21l21 0 0-22-21 0z m-22-64l43 0 0-22-43 0z m0-43l43 0 0-21-43 0z"/>
<glyph glyph-name="minus" unicode="&#92;" d="M43 427l0-384 405 0 0 384z m362-342l-320 0 0 299 320 0z m-42 171l-235 0 0-64 235 0z"/>
<glyph glyph-name="modem" unicode="&#57344;" d="M0 43c0-24 19-43 43-43l426 0c24 0 43 19 43 43l0 117c0 24-19 43-43 43l-128 0 0 112c0 14-12 26-26 26-15 0-27-12-27-26l0-112-245 0c-24 0-43-19-43-43z m53 58c0 15 12 27 27 27 15 0 27-12 27-27 0-14-12-26-27-26-15 0-27 12-27 26z m96 0c0 15 12 27 27 27 15 0 27-12 27-27 0-14-12-26-27-26-15 0-27 12-27 26z m166 326c-62 0-112-50-112-112 0-15 12-27 26-27 15 0 27 12 27 27 0 32 26 58 59 58 32 0 58-26 58-58 0-15 12-27 27-27 15 0 27 12 27 27 0 62-50 112-112 112z m0 85c-109 0-198-88-198-197 0-15 12-27 27-27 15 0 27 12 27 27 0 79 64 144 144 144 79 0 144-65 144-144 0-15 12-27 26-27 15 0 27 12 27 27 0 109-88 197-197 197z"/>
<glyph glyph-name="mute" unicode="&#57345;" d="M299 230l0-145-72 72-30-29 11 0 86-107c21 0 47 0 47 0l0 251z m-192-41c0 1 0 2 0 3l0 123c0 11 4 26 16 26l69 0 0-67 21 21 0 46 86 86 0-47 42 43 0 68c-21 0-26 0-47 0l-86-107-85 0c-35 0-59-34-59-69l0-123c0-14 4-26 10-36z m-34-140l-30 30 394 395 31-30z"/>
<glyph glyph-name="newspaper" unicode="&#57346;" d="M128 171l256 0 0 128-256 0z m21 106l214 0 0-85-214 0z m-21 64l256 0 0-21-256 0z m0-192l107 0 0-21-107 0z m0-42l64 0 0-22-64 0z m86-2l21 0 0-21-21 0z m63 44l107 0 0-21-107 0z m0-42l107 0 0-22-107 0z m150 320l0 20c0 24-22 44-74 44l-256 0c-36 0-54-30-54-66l0-362c0-36 18-63 54-63l298 0c36 0 32 0 74 0l0 427z m0-384l-330 0c-12 0-12 8-12 20l0 362c0 12 0 23 12 23l287 0 0-21-256 0 0-43 299 0z"/>
<glyph glyph-name="paperclip" unicode="&#57347;" d="M452 412l-61 60c-41 41-109 41-151 0l-211-211 30-30 212 211c25 25 65 25 90 0l60-61c25-25 25-65 0-90l-211-211c-27-27-57-33-65-25l-10 10-15 15-33 33c-4 3-1 24 10 35l211 211c3 2 23-8 38-23-7-6-5-5-8-7l-153-154 30-30 154 153c18 19 41 35 7 68-33 34-67 54-98 23l-211-211c-25-25-35-71-10-95l33-33 25-25c28-29 83-18 125 25l212 211c41 41 41 109 0 151z"/>
<glyph glyph-name="pencil" unicode="&#57348;" d="M275 499l-187-335 1 0 9-151 138 68 1 0 187 335z m-146-433l-1 76 68-39z m91 73l-74 41 115 205 74-41z m51 265l21 37 74-42-21-37z"/>
<glyph glyph-name="phone" unicode="&#57349;" d="M341 448l-170 0c-24 0-43-19-43-43l0-298c0-24 19-43 43-43l170 0c24 0 43 19 43 43l0 298c0 24-19 43-43 43z m-64-363l-42 0 0 43 42 0z m64 64l-170 0 0 256 170 0z"/>
<glyph glyph-name="phone-2" unicode="&#57350;" d="M448 320l-149 0 0-43 149 0 0-170-149 0c0-24-22-43-22-43l171 0c23 0 43 19 43 43l0 170c0 24-20 43-43 43z m-235 128l-170 0c-24 0-43-19-43-43l0-298c0-24 19-43 43-43l170 0c24 0 43 19 43 43l0 298c0 24-19 43-43 43z m-64-363l-42 0 0 43 42 0z m64 64l-170 0 0 256 170 0z"/>
<glyph glyph-name="phone-3" unicode="&#57351;" d="M43 405l170 0 0-42 43 0 0 42c0 24-19 43-43 43l-170 0c-24 0-43-19-43-43l0-298c0-24 16-43 40-43l24 0 0 85-21 0z m405-85l-299 0c-23 0-42-19-42-43l0-170c0-24 19-43 42-43l299 0c23 0 43 19 43 43l0 170c0 24-20 43-43 43z m-277-149l-43 0 0 42 43 0z m277-64l-256 0 0 170 256 0z"/>
<glyph glyph-name="picture" unicode="&#57352;" d="M0 448l0-384 512 0 0 384z m469-341l-426 0 0 298 426 0z m-160 140c24 0 43 19 43 42 0 24-19 43-43 43-23 0-42-19-42-43 0-23 19-42 42-42z m-21 64l43 0 0-43-43 0z m160 73l-384 0 0-256 384 0z m-363-149l129-36-129-23z m342-86l-342 0 0 5 342 60z m0 87l-171-32-171 53 0 106 342 0z"/>
<glyph glyph-name="pie-chart" unicode="&#57353;" d="M84 434c-49-35-81-92-81-157 0-23 4-46 12-67l181 67z m-51-151c0 40 15 78 43 107l89-99-127-43c-3 11-4 23-5 35z m251 197c-54 0-106-19-147-55l1 0-9-8 136-156-198-63 3-9 0 0c1-2 1-4 2-6l2-5 0 0c33-88 115-146 210-146 124 0 224 100 224 224 0 123-100 224-224 224z m166-152l-135-49 88 113c20-17 36-39 47-64z m-277 71c32 25 71 38 111 38 38 0 73-12 103-32l-103-132z m-58-208l155 49-28-160c-58 14-105 55-127 111z m169-116c-7 0-14 1-21 1l30 172 165 60c5-16 7-34 7-52 0-100-81-181-181-181z"/>
<glyph glyph-name="pill" unicode="&#57354;" d="M437 437c-50 50-131 50-181 0l-181-181c-50-50-50-131 0-181 50-50 131-50 181 0l181 181c50 50 50 131 0 181z m-30-30c33-33 33-88 0-121l-91-90-120 120 90 91c33 33 88 33 121 0z"/>
<glyph glyph-name="pin" unicode="&#57355;" d="M256 512c-107 0-194-87-194-194 0-108 152-318 194-318 31 0 194 210 194 318 0 107-87 194-194 194z m-1-290c-54 0-99 44-99 99 0 54 45 99 99 99 55 0 99-45 99-99 0-55-44-99-99-99z"/>
<glyph glyph-name="power" unicode="&#57356;" d="M245 213c18 0 32 20 32 43l0 171c0 23-14 42-32 42-17 0-32-19-32-42l0-171c0-23 15-43 32-43z m75 199l0-47c51-27 85-80 85-141 0-88-71-160-160-160-88 0-160 72-160 160 0 61 35 114 86 141l0 47c-75-30-128-103-128-188 0-112 91-203 202-203 112 0 203 91 203 203 0 85-53 158-128 188z"/>
<glyph glyph-name="printer-1" unicode="&#57357;" d="M469 320l-42 0 0 171-342 0 0-171-42 0c-24 0-43-19-43-43l0-213c0-23 14-43 32-43l53 0 0-21 342 0 0 21 53 0c18 0 32 20 32 43l0 213c0 24-19 43-43 43z m-384-277l-21 0 0 106 21 0z m299 0l-256 0 0 106 43 0 0-21 170 0 0 21 43 0z m0 277l-256 0 0 128 256 0z m64-277l-21 0 0 106 21 0z m21 213l-42 0 0 21 42 0z m-298-171l170 0 0 22-170 0z"/>
<glyph glyph-name="printer-2" unicode="&#57358;" d="M462 256l-35 0 0 213-363 0 0-213-29 0c-23 0-35-19-35-43l0-42c0-24 12-43 35-43l29 0 0-107 128 0 0 107 43 0 0-107 170 0 0 107 57 0c23 0 50 19 50 43l0 42c0 24-27 43-50 43z m-313-192l-42 0 0 64 42 0z m150 0l-22 0 0 64 22 0z m64 0l-22 0 0 64 22 0z m21 192l-277 0 0 171 277 0z m48-98c-18 0-32 15-32 33 0 18 14 32 32 32 18 0 33-14 33-32 0-18-15-33-33-33z m-283 205l128 0 0-43-128 0z m0-64l192 0 0-22-192 0z m-128 106l22 0 0-106-22 0z m427-42l21 0 0-64-21 0z"/>
<glyph glyph-name="refresh" unicode="&#57359;" d="M117 271c10 57 68 119 138 119 41 0 77-18 102-47l34 23c-33 39-83 65-137 65-91 0-166-63-177-152l-77 15 76-112 111 76z m319 59l-111-76 70-13c-10-57-69-119-138-119-41 0-77 18-102 47l-34-23c33-39 83-65 137-65 91 0 166 63 177 152l77-15z"/>
<glyph glyph-name="reload" unicode="&#57360;" d="M295 446c-96 0-175-66-187-160l-81 16 80-118 118 79-75 15c10 60 73 126 146 126 81 0 146-69 146-150 0-80-80-146-144-146l0-42c107 0 187 86 187 190 0 104-86 190-190 190z"/>
<glyph glyph-name="screen" unicode="&#57361;" d="M0 469l0-298 208 0-37-64 170 0-37 64 208 0 0 298z m469-256l-426 0 0 214 426 0z m-106-128l-214 0c-11 0-21-9-21-21 0-12 10-21 21-21l214 0c11 0 21 9 21 21 0 12-10 21-21 21z"/>
<glyph glyph-name="select" unicode="&#57362;" d="M405 491l-320 0 0-448 171 0 0 149 149 0z m-170-406l-107 0 0 107 107 0z m0 128l-107 0 0 107 107 0z m0 128l-107 0 0 107 107 0z m128-128l-107 0 0 107 107 0z m0 128l-107 0 0 107 107 0z m-64-194l43-130 16 68 67 0z"/>
<glyph glyph-name="set" unicode="&#57363;" d="M448 378l0 49-384 0 0-49-64-21 0-202 64-21 0-49 384 0 0 49 64 21 0 202z m-384-199l-21 7 0 140 21 7z m341-51l-298 0 0 256 298 0z m64 58l-21-7 0 154 21-7z m-85 177l-256 0 0-214 256 0z m-21-192l-214 0 0 170 214 0z"/>
<glyph glyph-name="settings" unicode="&#57364;" d="M213 331c44 0 79-33 85-75l75 0c-1 10-3 20-5 29l61 35-43 74-61-35c-19 19-42 33-69 40l0 70-85 0 0-70c-27-7-51-21-70-40l-60 35-43-74 61-35c-4-12-6-26-6-40 0-13 2-27 6-40l-61-35 43-74 60 35c19-18 43-32 70-40l0-70 85 0 0 151c-13-7-27-12-43-12-47 0-85 38-85 85 0 47 38 86 85 86z m278-203c0 8-2 15-4 23l40 23-22 36-39-22c-11 11-24 18-39 22l0 46-43 0 0-46c-15-4-29-11-40-22l-39 22-21-36 39-23c-2-8-3-15-3-23 0-8 1-15 3-23l-39-23 21-36 39 22c11-11 25-18 40-22l0-46 43 0 0 46c15 4 28 11 39 22l40-22 21 36-40 23c2 8 4 15 4 23z m-86-43c-23 0-42 19-42 43 0 24 19 43 42 43 24 0 43-19 43-43 0-24-19-43-43-43z"/>
<glyph glyph-name="share" unicode="&#57365;" d="M0 43c0-24 19-43 43-43l426 0c24 0 43 19 43 43l0 426c0 24-19 43-43 43l-426 0c-24 0-43-19-43-43z m96 213c0 35 29 64 64 64 15 0 28-5 39-13l89 40c0 2 0 3 0 5 0 35 29 64 64 64 35 0 64-29 64-64 0-35-29-64-64-64-16 0-31 6-43 16l-86-39c1-3 1-6 1-9 0-3 0-6-1-9l86-39c12 10 27 16 43 16 35 0 64-29 64-64 0-35-29-64-64-64-35 0-64 29-64 64 0 2 0 3 0 5l-89 40c-11-8-24-13-39-13-35 0-64 29-64 64z"/>
<glyph glyph-name="share-outline" unicode="&#57366;" d="M427 171c-26 0-49-12-64-30l-157 78c5 12 7 24 7 37 0 13-2 25-7 37l157 78c15-18 38-30 64-30 47 0 85 39 85 86 0 47-38 85-85 85-47 0-86-38-86-85 0-6 1-12 2-18l-159-80c0 0 0 0 0 0-19 21-47 34-77 34-59 0-107-48-107-107 0-59 48-107 107-107 30 0 58 13 77 34 0 0 0 0 0 0l159-80c-1-6-2-12-2-18 0-47 39-85 86-85 47 0 85 38 85 85 0 47-38 86-85 86z m0 298c23 0 42-19 42-42 0-24-19-43-42-43-24 0-43 19-43 43 0 23 19 42 43 42z m-320-277c-36 0-64 29-64 64 0 35 28 64 64 64 35 0 64-29 64-64 0-35-29-64-64-64z m320-149c-24 0-43 19-43 42 0 24 19 43 43 43 23 0 42-19 42-43 0-23-19-42-42-42z"/>
<glyph glyph-name="shorts" unicode="&#57367;" d="M21 448l0-363 192 0 0-42 278 0 0 405z m214-320l-171 0 0 21 171 0z m213-43l-192 0 0 22 192 0z m0 299l-21 0 0-21 21 0 0-235-192 0 0 128-21 0 0-85-171 0 0 107c16 2 58 8 58 43l-58-39 0 123 384 0z m-6-106l-64 43c0-43 64-43 64-43z m-37 106l-21 0 0-21 21 0z m-42 0l-22 0 0-21 22 0z m-43 0l-21 0 0-21 21 0z m-43 0l-21 0 0-21 21 0z m-42 0l-22 0 0-21 22 0z m-43 0l-21 0 0-21 21 0z m-43 0l-21 0 0-21 21 0z m-42 0l-22 0 0-21 22 0z"/>
<glyph glyph-name="speaker" unicode="&#57368;" d="M165 149l262-85 0 384-262-85-80 0c-35 0-64-29-64-64l0-86c0-35 29-64 64-64l9 0c0 0 0-1 0-1 0-14 2-33 8-52 4-9 8-19 14-27 3-4 6-9 9-12 3-4 7-7 10-10 7-6 13-10 17-12 5-3 8-4 8-4l0-1c4-2 9-3 14-4 19-2 37 12 39 32 2 19-12 37-31 39 0 0-1 0-4 1-2 0-5 0-9 1-2 1-4 2-6 2-2 1-4 3-6 4-5 3-10 7-14 12-8 10-15 22-19 32z m198 241l21 7 0-282-21 6z m-171-57l149 50 0-255-149 51z m-107-141c-11 0-21 10-21 21l0 86c0 11 10 21 21 21l86 0 0-128z m363 128l21 0 0-128-21 0z"/>
<glyph glyph-name="star" unicode="&#57369;" d="M392 10c-8 0-17 2-25 7l-83 44c-14 7-42 7-56 0l-83-44c-20-11-41-8-53 6-5 6-11 19-8 39l16 92c3 16-6 41-17 53l-67 65c-14 14-20 30-15 45 5 14 19 24 38 27l93 14c16 2 37 18 45 32l41 84c9 18 23 28 38 28 15 0 29-10 38-28l41-84c8-14 29-30 45-32l93-14c19-3 33-13 38-27 5-15-1-31-15-45l-67-65c-11-12-20-37-17-53l16-92c3-20-3-33-8-39-7-8-17-13-28-13z m-136 99c18 0 35-4 48-11l82-43-16 92c-5 30 8 69 30 90l66 65-92 13c-30 5-63 29-77 56l-41 84-41-84c-14-27-47-51-77-56l-92-13 66-65c22-21 35-60 30-90l-16-92 82 43c13 7 30 11 48 11z"/>
<glyph glyph-name="stopwatch" unicode="&#57370;" d="M277 426l0 22 11 0c6 0 11 5 11 11l0 42c0 6-5 11-11 11l-64 0c-6 0-11-5-11-11l0-42c0-6 5-11 11-11l11 0 0-22c-20-2-38-7-55-14l-23 22-39 39-75-75 49-49c-31-37-49-84-49-136 0-117 95-213 213-213 118 0 213 96 213 213 0 111-84 202-192 213z m-42 65l42 0 0-22-42 0z m-162-93l45 45 25-25-45-45z m183-355c-94 0-171 76-171 170 0 94 77 171 171 171 94 0 171-77 171-171 0-94-77-170-171-170z m-17 267c-8 9-22 9-30 0-8-8-8-22 0-30l42-42-56-78c-6-10-2-23 8-29 3-2 7-3 10-3 8 0 15 4 19 11l64 92c5 9 3 19-4 26z"/>
<glyph glyph-name="sun" unicode="&#57371;" d="M512 256l-57 65 8 87-84 19-44 75-79-35-79 35-44-75-84-19 8-87-57-65 57-65-8-87 84-19 44-75 79 35 79-35 44 75 84 19-8 87z m-160-134l-34-59-62 27-62-27-34 59-66 15 6 68-45 51 45 51-6 68 66 15 34 59 62-27 62 27 34-59 66-15-6-68 45-51-45-51 6-68z m-96 270c-74 0-135-61-135-136 0-75 61-136 135-136 74 0 135 61 135 136 0 75-61 136-135 136z m0-251c-63 0-114 52-114 115 0 63 51 115 114 115 63 0 114-52 114-115 0-63-51-115-114-115z"/>
<glyph glyph-name="syringe" unicode="&#57372;" d="M418 403l30-30 31 30-76 76-30-31 30-30-45-45-91 90-30-30 30-30-226-226 52-52-60-92 92 60 52-52 226 226 30-30 30 30-90 91z m-45-106l-45-45-46 45-15-15 46-45-31-30-45 45-15-15 45-45-30-30-45 45-15-15 45-45-45-46-76 76 196 196z"/>
<glyph glyph-name="tag" unicode="&#57373;" d="M469 324l-60 188-196-61-170-315 251-136 170 315c1 0 1 0 1 0l4 9z m-91 10c-15-28-51-39-79-24-29 16-40 52-24 80 15 29 51 39 80 24 28-16 39-51 23-80z"/>
<glyph glyph-name="train" unicode="&#57374;" d="M389 427l-68 0-34 42-31 0 0 22-21 0 0-22-23 0-28-42-94 0c-35 0-69-20-69-55l0-256c0-35 43-73 64-73l0-43 64 0 0 43 171 0 0-43 64 0 0 43c43 0 64 38 64 73l0 256c0 35-24 55-59 55z m-165 21l53 0 17-21-85 0z m181-332c0-12-5-31-16-31l-299 0c-12 0-26 19-26 31l0 256c0 12 14 12 26 12l299 0c11 0 16 0 16-12z m-320 55l299 0 0 170-299 0z m22 149l256 0 0-128-256 0z m106-213l43 0 0 42-43 0z"/>
<glyph glyph-name="trash" unicode="&#57375;" d="M320 427l0 64-128 0 0-64-85 0 0-43 298 0 0 43z m-42 0l-43 0 0 21 43 0z m-171-64l0-320 42-43 214 0 42 43 0 320z m64-320l-22 0 0 234 22 0z m42 0l-21 0 0 234 21 0z m43 0l-21 0 0 234 21 0z m107 0l-86 0 0 234 86 0z m0 256l-214 0 0 21 214 0z"/>
<glyph glyph-name="unlocked" unicode="&#57376;" d="M405 512c-85 0-106-64-106-107l0-106-299 0 0-235c0-35 29-64 64-64l256 0c35 0 64 29 64 64l0 235-43 0 0 128c0 0 0 42 64 42 64 0 64-42 64-42l0-86 43 0 0 64c0 43-21 107-107 107z m-64-448c0-12-9-21-21-21l-256 0c-12 0-21 9-21 21l0 192 298 0z m-170 70l0-49 42 0 0 49c13 7 22 21 22 37 0 23-19 42-43 42-24 0-43-19-43-42 0-16 9-30 22-37z"/>
<glyph glyph-name="user" unicode="&#57377;" d="M256 192c0 0-171 0-235-149 0 0 107-43 235-43 128 0 235 43 235 43-64 149-235 149-235 149z m0 21c64 0 107 64 107 171 0 107-107 107-107 107 0 0-107 0-107-107 0-107 43-171 107-171z"/>
<glyph glyph-name="user-outline" unicode="&#57378;" d="M505 86c-36 85-105 125-158 143 24 33 37 81 37 140 1 99-81 126-124 127-44 0-126-25-127-125 0-59 12-107 35-140-54-18-123-56-161-141l-9-20 21-8c4-2 109-45 237-46 127-1 233 40 237 41l21 8z m-246 367c9 0 83-4 83-84-1-64-18-112-48-133l-37-26-36 27c-29 21-46 70-45 134 0 80 75 82 83 82z m-3-394c-86 1-163 22-199 34 39 69 105 95 156 106l44 9 45-10c50-11 116-39 154-108-36-12-113-32-200-31z"/>
<glyph glyph-name="users" unicode="&#57379;" d="M320 206c0 0-132 0-181-116 0 0 82-33 181-33 99 0 181 33 181 33-49 116-181 116-181 116z m0 16c49 0 82 49 82 132 0 82-82 82-82 82 0 0-82 0-82-82 0-82 33-132 82-132z m-160 56c16 0 30 7 41 19-4 17-6 36-6 57 0 32 12 51 27 63-16 38-62 38-62 38 0 0-68 0-68-68 0-68 27-109 68-109z m64-53l-2 27c-34 13-62 13-62 13 0 0-109 0-149-95 0 0 52-21 120-26 59 62 93 81 93 81z"/>
<glyph glyph-name="users-outline" unicode="&#57380;" d="M503 86c-31 72-103 113-155 131 32 26 51 76 51 141 0 86-72 109-110 109-7 0-14-1-21-2-20 18-47 26-69 26-40 0-99-26-99-98 0-57 17-101 45-125-44-11-105-40-136-112l-9-20 21-8c1-1 27-10 65-19-5-7-9-15-12-23l-9-20 21-8c3-2 94-37 203-37 109 0 199 35 202 37l21 8z m-147 272c0-74-26-119-67-119-42 0-68 45-68 119 0 62 56 66 67 66 12 0 68-4 68-66z m-157 90c2 0 11 0 20-4-22-16-40-43-40-86 0-24 2-45 7-64-32 10-43 56-43 99 0 52 47 55 56 55z m0-214c0 0 6 0 16-2 9-11 20-20 32-26-33-7-81-23-120-61-28 4-52 10-68 15 46 72 136 74 140 74z m90-170c-70 0-141 16-173 26 5 15 21 34 27 41 60 57 145 59 145 59 1 0 16-1 38-5 38-10 97-45 127-95-32-10-94-26-164-26z"/>
<glyph glyph-name="volume" unicode="&#57381;" d="M272 491l-85-107-85 0c-36 0-59-34-59-69l0-123c0-35 23-64 59-64l85 0 85-107c22 0 48 0 48 0l0 470c-21 0-26 0-48 0z m-101-320l-69 0c-12 0-17 9-17 21l0 123c0 11 5 26 17 26l69 0z m106-86l-85 86 0 170 85 86z m86 278l0-45c42-9 42-32 42-60 0-28 0-51-42-60l0-44c64 10 85 53 85 104 0 52-21 95-85 105z"/>
<glyph glyph-name="volume-down" unicode="&#57382;" d="M251 491l-85-107-86 0c-35 0-59-34-59-69l0-123c0-35 24-64 59-64l86 0 85-107c21 0 48 0 48 0l0 470c-22 0-27 0-48 0z m-102-320l-69 0c-11 0-16 9-16 21l0 123c0 11 5 26 16 26l69 0z m107-86l-85 86 0 170 85 86z m107 192l128 0 0-42-128 0z"/>
<glyph glyph-name="volume-up" unicode="&#57383;" d="M251 491l-85-107-86 0c-35 0-59-34-59-69l0-123c0-35 24-64 59-64l86 0 85-107c21 0 48 0 48 0l0 470c-22 0-27 0-48 0z m-102-320l-69 0c-11 0-16 9-16 21l0 123c0 11 5 26 16 26l69 0z m107-86l-85 86 0 170 85 86z m235 192l-43 0 0 43-43 0 0-43-42 0 0-42 42 0 0-43 43 0 0 43 43 0z"/>
<glyph glyph-name="wifi-1" unicode="&#57384;" d="M256 322c-42 0-80-17-107-45l30-30c20 20 47 32 77 32 30 0 57-12 77-32l30 30c-27 28-65 45-107 45z m0-89c-18 0-32-14-32-32 0-18 14-32 32-32 18 0 32 14 32 32 0 18-14 32-32 32z"/>
<glyph glyph-name="wifi-2" unicode="&#57385;" d="M149 236l30-30c20 20 47 32 77 32 30 0 57-12 77-32l30 30c-27 28-65 45-107 45-42 0-80-17-107-45z m107 142c-69 0-131-28-176-73l30-30c38 37 89 60 146 60 57 0 108-23 146-60l30 30c-45 45-107 73-176 73z m0-186c-18 0-32-14-32-32 0-18 14-32 32-32 18 0 32 14 32 32 0 18-14 32-32 32z"/>
<glyph glyph-name="wifi-3" unicode="&#57386;" d="M149 172l30-30c20 20 47 32 77 32 30 0 57-12 77-32l30 30c-27 28-65 45-107 45-42 0-80-17-107-45z m-69 69l30-30c38 37 89 60 146 60 57 0 108-23 146-60l30 30c-45 45-107 73-176 73-69 0-131-28-176-73z m176 170c-96 0-182-38-245-101l31-30c55 55 130 89 214 89 84 0 159-34 214-89l31 30c-63 63-149 101-245 101z m0-283c-18 0-32-14-32-32 0-18 14-32 32-32 18 0 32 14 32 32 0 18-14 32-32 32z"/>
<glyph glyph-name="window-delete" unicode="&#57387;" d="M0 491l0-470 512 0 0 470z m469-427l-426 0 0 277 426 0z m0 299l-426 0 0 85 426 0z m-234 64l-43 0 0-43 43 0z m-64 0l-43 0 0-43 43 0z m-64 0l-43 0 0-43 43 0z m86-297l52 53 53-53 30 31-52 52 52 53-30 30-53-53-52 53-31-30 53-53-53-52z"/>
<glyph glyph-name="windows" unicode="&#57388;" d="M64 491l0-64-64 0 0-406 448 0 0 64 64 0 0 406z m341-427l-362 0 0 320 21 0 0-299 341 0z m64 64l-362 0 0 213 362 0z m0 235l-362 0 0 85 362 0z m-170 64l-43 0 0-43 43 0z m-64 0l-43 0 0-43 43 0z m-64 0l-43 0 0-43 43 0z"/>
<glyph glyph-name="zoom" unicode="&#57389;" d="M17 60l30-30 94 94-30 31z m284 431c-104 0-189-85-189-190 0-41 13-78 35-109l36-38c32-26 73-42 118-42 105 0 190 85 190 189 0 105-85 190-190 190z m0-336c-81 0-146 65-146 146 0 81 65 147 146 147 81 0 147-66 147-147 0-81-66-146-147-146z"/>
<glyph glyph-name="zoom-in" unicode="&#57390;" d="M17 60l30-30 94 94-30 31z m284 431c-104 0-189-85-189-190 0-41 13-78 35-109l36-38c32-26 73-42 118-42 105 0 190 85 190 189 0 105-85 190-190 190z m0-336c-81 0-146 65-146 146 0 81 65 147 146 147 81 0 147-66 147-147 0-81-66-146-147-146z m19 208l-42 0 0-43-43 0 0-43 43 0 0-42 42 0 0 42 43 0 0 43-43 0z"/>
<glyph glyph-name="zoom-out" unicode="&#57391;" d="M17 60l30-30 94 94-30 31z m284 431c-104 0-189-85-189-190 0-41 13-78 35-109l36-38c32-26 73-42 118-42 105 0 190 85 190 189 0 105-85 190-190 190z m0-336c-81 0-146 65-146 146 0 81 65 147 146 147 81 0 147-66 147-147 0-81-66-146-147-146z m-66 165l128 0 0-43-128 0z"/>
</font>
</defs>
</svg>
